Featured TV Shows


Atlanta S02E08

Posted By: Tavaz
1080p (FullHD) / WEBRip IMDb
Atlanta S02E08

Atlanta S02E08
WEBRip | MKV | 1920x1080 | English | H264 @ 13732 kbps | E-AC-3 @ 640 kbps | 27 min 16 s | 2.79 GiB
Subtitles: English
Genre: Comedy

Two cousins, with different views on art versus commerce, on their way up through the Atlanta rap scene; Earnest 'Earn' Marks, an ambitious college dropout and his estranged cousin, who suddenly becomes a star.

Atlanta.S02E08.1080p.WEB.H264-DEFLATE.mkv (2.8 GB)



General
Unique ID : 59350001500694401173137102870226510788 (0x2CA664FE8A0F81AB5AC2D21D32BDA3C4)
Complete name : ./Atlanta.S02E08.1080p.WEB.H264-DEFLATE.mkv
Format : Matroska
Format version : Version 4 / Version 2
File size : 2.79 GiB
Duration : 27 min 16 s
Overall bit rate mode : Variable
Overall bit rate : 14.7 Mb/s
Encoded date : UTC 2018-04-20 00:02:08
Writing application : mkvmerge v20.0.0 (master: 2421163 / deflate: b81f064) [X86_64]
Writing library : libebml v1.3.5 + libmatroska v1.4.8

Video
ID : 1
Format : AVC
Format/Info : Advanced Video Codec
Format profile : High@L4
Format settings : CABAC / 4 Ref Frames
Format settings, CABAC : Yes
Format settings, RefFrames : 4 frames
Codec ID : V_MPEG4/ISO/AVC
Duration : 27 min 16 s
Bit rate mode : Variable
Bit rate : 13.7 Mb/s
Maximum bit rate : 15.0 Mb/s
Width : 1 920 pixels
Height : 1 080 pixels
Display aspect ratio : 16:9
Frame rate mode : Constant
Frame rate : 23.976 (24000/1001) FPS
Color space : YUV
Chroma subsampling : 4:2:0
Bit depth : 8 bits
Scan type : Progressive
Bits/(Pixel*Frame) : 0.276
Stream size : 2.62 GiB (94%)
Language : English
Default : Yes
Forced : No
Color range : Limited
Color primaries : BT.709
Transfer characteristics : BT.709
Matrix coefficients : BT.709

Audio
ID : 2
Format : E-AC-3
Format/Info : Enhanced Audio Coding 3
Format settings, Endianness : Big
Codec ID : A_EAC3
Duration : 27 min 16 s
Bit rate mode : Constant
Bit rate : 640 kb/s
Channel(s) : 6 channels
Channel positions : Front: L C R, Side: L R, LFE
Sampling rate : 48.0 kHz
Frame rate : 187.500 FPS (256 SPF)
Compression mode : Lossy
Stream size : 125 MiB (4%)
Language : English
Service kind : Complete Main
Default : Yes
Forced : No

Text #1
ID : 3
Format : UTF-8
Codec ID : S_TEXT/UTF8
Codec ID/Info : UTF-8 Plain Text
Title : English
Language : English
Default : No
Forced : No

Text #2
ID : 4
Format : UTF-8
Codec ID : S_TEXT/UTF8
Codec ID/Info : UTF-8 Plain Text
Title : English (SDH)
Language : English
Default : No
Forced : No





Atlanta S02E08


Atlanta S02E08


Atlanta S02E08


Atlanta S02E08


Atlanta S02E08

All episodes