Index
# A B C D E F G H I J K L M N O P Q R S T U V W Y Z
Tags
Language
Tags

Featured TV Shows


Back to Life S02E05

Posted By: Tavaz
1080p (FullHD) / WEB-DL IMDb
Back to Life S02E05

Back to Life S02E05
WEB-DL | MKV | 1920x1080 | English | H264 @ 9049 kbps | AAC @ 128 kbps | 26 min 57 s | 1.73 GiB
Subtitles: English
Genre: Comedy, Drama


When Miri Matteson returns home after eighteen years, can she integrate back into her old life? With a terrible event from her past hanging over her, it won’t be easy.

827ee6369ded413b90c2a7b1f36c00d7.mkv (1.7 GB)



General
Unique ID : 157468148341961354247909032070777928754 (0x76774320B6569F4A87CEBA7DE7E3FC32)
Complete name : ./827ee6369ded413b90c2a7b1f36c00d7.mkv
Format : Matroska
Format version : Version 4 / Version 2
File size : 1.73 GiB
Duration : 26 min 57 s
Overall bit rate mode : Variable
Overall bit rate : 9 181 kb/s
Encoded date : UTC 2021-08-31 17:40:52
Writing application : mkvmerge v60.0.0 ('Are We Copies?') 64-bit
Writing library : libebml v1.4.2 + libmatroska v1.6.4

Video
ID : 1
Format : AVC
Format/Info : Advanced Video Codec
Format profile : High@L4.2
Format settings : CABAC / 4 Ref Frames
Format settings, CABAC : Yes
Format settings, RefFrames : 4 frames
Codec ID : V_MPEG4/ISO/AVC
Duration : 26 min 57 s
Bit rate mode : Variable
Bit rate : 9 049 kb/s
Maximum bit rate : 12.0 Mb/s
Width : 1 920 pixels
Height : 1 080 pixels
Display aspect ratio : 16:9
Frame rate mode : Constant
Frame rate : 50.000 FPS
Color space : YUV
Chroma subsampling : 4:2:0
Bit depth : 8 bits
Scan type : Progressive
Bits/(Pixel*Frame) : 0.087
Stream size : 1.70 GiB (99%)
Default : Yes
Forced : No
Color range : Limited
Color primaries : BT.709
Transfer characteristics : BT.709
Matrix coefficients : BT.709

Audio
ID : 2
Format : AAC
Format/Info : Advanced Audio Codec
Format profile : LC
Codec ID : A_AAC-2
Duration : 26 min 57 s
Bit rate : 128 kb/s
Channel(s) : 2 channels
Channel positions : Front: L R
Sampling rate : 48.0 kHz
Frame rate : 46.875 FPS (1024 SPF)
Compression mode : Lossy
Stream size : 24.7 MiB (1%)
Language : English
Default : Yes
Forced : No

Text
ID : 3
Format : UTF-8
Codec ID : S_TEXT/UTF8
Codec ID/Info : UTF-8 Plain Text
Duration : 25 min 51 s
Bit rate : 66 b/s
Count of elements : 404
Stream size : 12.6 KiB (0%)
Title : SDH
Language : English
Default : No
Forced : No





Back to Life S02E05


Back to Life S02E05


Back to Life S02E05


Back to Life S02E05


Back to Life S02E05

All episodes