Index
# A B C D E F G H I J K L M N O P Q R S T U V W Y Z
Tags
Language
Tags

Featured TV Shows


Back to Life S02E06

Posted By:
1080p (FullHD) / WEB-DL IMDb
Back to Life S02E06

Back to Life S02E06
WEB-DL | MKV | 1920x1080 | English | H264 @ 9158 kbps | AAC @ 128 kbps | 28 min 9 s | 1.83 GiB
Subtitles: English
Genre: Comedy, Drama


When Miri Matteson returns home after eighteen years, can she integrate back into her old life? With a terrible event from her past hanging over her, it won’t be easy.

91fd347bd1d946cf963df9a45b32e7f1.mkv (1.8 GB)



General
Unique ID : 127195488969156936179485186556107658796 (0x5FB0F5C917811BEEBF2AE51E6E83962C)
Complete name : ./91fd347bd1d946cf963df9a45b32e7f1.mkv
Format : Matroska
Format version : Version 4 / Version 2
File size : 1.83 GiB
Duration : 28 min 9 s
Overall bit rate mode : Variable
Overall bit rate : 9 290 kb/s
Encoded date : UTC 2021-08-31 17:47:32
Writing application : mkvmerge v60.0.0 ('Are We Copies?') 64-bit
Writing library : libebml v1.4.2 + libmatroska v1.6.4

Video
ID : 1
Format : AVC
Format/Info : Advanced Video Codec
Format profile : High@L4.2
Format settings : CABAC / 4 Ref Frames
Format settings, CABAC : Yes
Format settings, RefFrames : 4 frames
Codec ID : V_MPEG4/ISO/AVC
Duration : 28 min 9 s
Bit rate mode : Variable
Bit rate : 9 158 kb/s
Maximum bit rate : 12.0 Mb/s
Width : 1 920 pixels
Height : 1 080 pixels
Display aspect ratio : 16:9
Frame rate mode : Constant
Frame rate : 50.000 FPS
Color space : YUV
Chroma subsampling : 4:2:0
Bit depth : 8 bits
Scan type : Progressive
Bits/(Pixel*Frame) : 0.088
Stream size : 1.80 GiB (99%)
Default : Yes
Forced : No
Color range : Limited
Color primaries : BT.709
Transfer characteristics : BT.709
Matrix coefficients : BT.709

Audio
ID : 2
Format : AAC
Format/Info : Advanced Audio Codec
Format profile : LC
Codec ID : A_AAC-2
Duration : 28 min 9 s
Bit rate : 128 kb/s
Channel(s) : 2 channels
Channel positions : Front: L R
Sampling rate : 48.0 kHz
Frame rate : 46.875 FPS (1024 SPF)
Compression mode : Lossy
Stream size : 25.8 MiB (1%)
Language : English
Default : Yes
Forced : No

Text
ID : 3
Format : UTF-8
Codec ID : S_TEXT/UTF8
Codec ID/Info : UTF-8 Plain Text
Duration : 27 min 35 s
Bit rate : 69 b/s
Count of elements : 463
Stream size : 14.0 KiB (0%)
Title : SDH
Language : English
Default : No
Forced : No





Back to Life S02E06


Back to Life S02E06


Back to Life S02E06


Back to Life S02E06


Back to Life S02E06

All episodes