Index
# A B C D E F G H I J K L M N O P Q R S T U V W Y Z
Tags
Language
Tags

Featured TV Shows


Bäckström S01E03

Posted By: MegoNecia
720p (HD) / WEBRip IMDb
Bäckström S01E03

Bäckström S01E03
WEBRip | MKV | 1280x720 | Svenska | H264 @ 1499 kbps | AAC @ 127 kbps | 44 min 13 s | 513 MiB
Genre: Crime, Drama


Murder investigator Evert Bäckström is convinced that crimes have been committed when a women's cranium is found on an island in the archipelago. But his investigation is countered by the police chief and when the woman's identity is clarified, the entire investigation is turned upside down.

af20cc7176fb487f8b351f953df24f08.mkv (513.4 MB)



General
Unique ID : 273808361301474900052737609805788574314 (0xCDFD927C0DC6B9CA0AC63AE3A5AF726A)
Complete name : ./af20cc7176fb487f8b351f953df24f08.mkv
Format : Matroska
Format version : Version 4 / Version 2
File size : 513 MiB
Duration : 44 min 13 s
Overall bit rate : 1 623 kb/s
Encoded date : UTC 2021-02-24 13:02:16
Writing application : mkvmerge v53.0.0 ('Fool's Gold') 64-bit
Writing library : libebml v1.4.1 + libmatroska v1.6.2

Video
ID : 1
Format : AVC
Format/Info : Advanced Video Codec
Format profile : Main@L3.1
Format settings : CABAC / 4 Ref Frames
Format settings, CABAC : Yes
Format settings, RefFrames : 4 frames
Format settings, GOP : M=4, N=50
Codec ID : V_MPEG4/ISO/AVC
Duration : 44 min 13 s
Bit rate mode : Constant
Bit rate : 1 500 kb/s
Width : 1 280 pixels
Height : 720 pixels
Display aspect ratio : 16:9
Frame rate mode : Constant
Frame rate : 25.000 FPS
Standard : Component
Color space : YUV
Chroma subsampling : 4:2:0
Bit depth : 8 bits
Scan type : Progressive
Bits/(Pixel*Frame) : 0.065
Stream size : 472 MiB (92%)
Language : English
Default : Yes
Forced : No
Color range : Limited
Color primaries : BT.709
Transfer characteristics : BT.709
Matrix coefficients : BT.709

Audio
ID : 2
Format : AAC
Format/Info : Advanced Audio Codec
Format profile : LC
Codec ID : A_AAC-2
Duration : 44 min 13 s
Bit rate : 128 kb/s
Channel(s) : 2 channels
Channel positions : Front: L R
Sampling rate : 44.1 kHz
Frame rate : 43.066 FPS (1024 SPF)
Compression mode : Lossy
Delay relative to video : -80 ms
Stream size : 40.5 MiB (8%)
Title : Swedish
Language : Swedish
Default : Yes
Forced : No





Bäckström S01E03


Bäckström S01E03


Bäckström S01E03


Bäckström S01E03


Bäckström S01E03

All episodes