Index
# A B C D E F G H I J K L M N O P Q R S T U V W Y Z
Tags
Language
Tags

Featured TV Shows


Blue Mountain State S01E02

Posted By: Tavaz
720p (HD) / WEB-DL IMDb
Blue Mountain State S01E02

Blue Mountain State S01E02
WEB-DL | MKV | 1280x720 | English | H264 @ 1771 kbps | AC-3 @ 384 kbps | 20 min 17 s | 313 MiB
Subtitles: Suomi, Svenska, Dansk, English
Genre: Comedy


Three incoming freshman in a big-time, Midwestern college football program have to juggle football, girls, class and nonstop hazing.

Blue.Mountain.State.S01E02.NORDiC.720p.WEB-DL.H.264-NORDiC+.mkv (313.1 MB)



General
Unique ID : 227595072049409207117998095159086904867 (0xAB393768F8C8C6939E4675FB767D7623)
Complete name : ./Blue.Mountain.State.S01E02.NORDiC.720p.WEB-DL.H.264-NORDiC+.mkv
Format : Matroska
Format version : Version 4 / Version 2
File size : 313 MiB
Duration : 20 min 17 s
Overall bit rate mode : Variable
Overall bit rate : 2 158 kb/s
Encoded date : UTC 2021-06-04 14:58:47
Writing application : mkvmerge v12.0.0 ('Trust / Lust') 32bit
Writing library : libebml v1.3.4 + libmatroska v1.4.5

Video
ID : 1
Format : AVC
Format/Info : Advanced Video Codec
Format profile : Main@L3.1
Format settings : CABAC / 3 Ref Frames
Format settings, CABAC : Yes
Format settings, RefFrames : 3 frames
Format settings, GOP : M=3, N=50
Codec ID : V_MPEG4/ISO/AVC
Duration : 20 min 17 s
Bit rate mode : Variable
Bit rate : 1 772 kb/s
Maximum bit rate : 3 600 kb/s
Width : 1 280 pixels
Height : 720 pixels
Display aspect ratio : 16:9
Frame rate mode : Constant
Frame rate : 25.000 FPS
Color space : YUV
Chroma subsampling : 4:2:0
Bit depth : 8 bits
Scan type : Progressive
Bits/(Pixel*Frame) : 0.077
Stream size : 257 MiB (82%)
Default : Yes
Forced : No

Audio
ID : 2
Format : AC-3
Format/Info : Audio Coding 3
Format settings, Endianness : Big
Codec ID : A_AC3
Duration : 20 min 17 s
Bit rate mode : Constant
Bit rate : 384 kb/s
Channel(s) : 6 channels
Channel positions : Front: L C R, Side: L R, LFE
Sampling rate : 48.0 kHz
Frame rate : 31.250 FPS (1536 SPF)
Bit depth : 16 bits
Compression mode : Lossy
Stream size : 55.7 MiB (18%)
Title : Dolby Digital
Language : English
Service kind : Complete Main
Default : Yes
Forced : No

Text #1
ID : 3
Format : UTF-8
Codec ID : S_TEXT/UTF8
Codec ID/Info : UTF-8 Plain Text
Duration : 19 min 35 s
Bit rate : 57 b/s
Count of elements : 198
Stream size : 8.25 KiB (0%)
Language : Danish
Default : No
Forced : No

Text #2
ID : 4
Format : UTF-8
Codec ID : S_TEXT/UTF8
Codec ID/Info : UTF-8 Plain Text
Duration : 19 min 35 s
Bit rate : 58 b/s
Count of elements : 203
Stream size : 8.40 KiB (0%)
Language : Norwegian
Default : No
Forced : No

Text #3
ID : 5
Format : UTF-8
Codec ID : S_TEXT/UTF8
Codec ID/Info : UTF-8 Plain Text
Duration : 19 min 35 s
Bit rate : 59 b/s
Count of elements : 203
Stream size : 8.54 KiB (0%)
Language : Swedish
Default : No
Forced : No

Text #4
ID : 6
Format : UTF-8
Codec ID : S_TEXT/UTF8
Codec ID/Info : UTF-8 Plain Text
Duration : 19 min 35 s
Bit rate : 63 b/s
Count of elements : 208
Stream size : 9.04 KiB (0%)
Language : Finnish
Default : No
Forced : No

Text #5
ID : 7
Format : UTF-8
Codec ID : S_TEXT/UTF8
Codec ID/Info : UTF-8 Plain Text
Duration : 19 min 36 s
Bit rate : 102 b/s
Count of elements : 450
Stream size : 14.7 KiB (0%)
Language : English
Default : No
Forced : No





Blue Mountain State S01E02


Blue Mountain State S01E02


Blue Mountain State S01E02


Blue Mountain State S01E02


Blue Mountain State S01E02

All episodes