Index
# A B C D E F G H I J K L M N O P Q R S T U V W Y Z
Tags
Language
Tags

Featured TV Shows


Blue Mountain State S01E06

Posted By: Tavaz
1080p (FullHD) / BDRip IMDb
Blue Mountain State S01E06

Blue Mountain State S01E06
BDRip | MKV | 1920x1080 | English | H265 @ 3889 kbps | AC-3 @ 256 kbps | 21 min 32 s | 639 MiB
Subtitles: English
Genre: Comedy


Three incoming freshman in a big-time, Midwestern college football program have to juggle football, girls, class and nonstop hazing.

Blue.Mountain.State.S01E06.1080p.Bluray.x265-HiQVE.mkv (639.0 MB)



General
Unique ID : 113384281175069789589043304605548457281 (0x554D04AAF836F3FD103A985DB00EAD41)
Complete name : ./Blue.Mountain.State.S01E06.1080p.Bluray.x265-HiQVE.mkv
Format : Matroska
Format version : Version 4 / Version 2
File size : 639 MiB
Duration : 21 min 32 s
Overall bit rate : 4 148 kb/s
Movie name : movieddl.me_Blue.Mountain.State.S01E06.1080p.Bluray.x265-HiQVE
Encoded date : UTC 2021-12-16 05:06:19
Writing application : mkvmerge v63.0.0 ('Everything') 64-bit
Writing library : libebml v1.4.2 + libmatroska v1.6.4 / Lavf58.76.100

Video
ID : 1
Format : HEVC
Format/Info : High Efficiency Video Coding
Format profile : Main 10@L4@Main
Codec ID : V_MPEGH/ISO/HEVC
Duration : 21 min 32 s
Bit rate : 3 890 kb/s
Width : 1 920 pixels
Height : 1 080 pixels
Display aspect ratio : 16:9
Frame rate mode : Variable
Frame rate : 23.976 FPS
Color space : YUV
Chroma subsampling : 4:2:0
Bit depth : 10 bits
Bits/(Pixel*Frame) : 0.078
Stream size : 599 MiB (94%)
Writing library : Lavc58.134.100 libx265
Language : English
Default : Yes
Forced : No
Color range : Limited
Color primaries : BT.709
Transfer characteristics : BT.709
Matrix coefficients : BT.709

Audio
ID : 2
Format : AC-3
Format/Info : Audio Coding 3
Format settings, Endianness : Big
Codec ID : A_AC3
Duration : 21 min 32 s
Bit rate mode : Constant
Bit rate : 256 kb/s
Channel(s) : 6 channels
Channel positions : Front: L C R, Side: L R, LFE
Sampling rate : 48.0 kHz
Frame rate : 31.250 FPS (1536 SPF)
Bit depth : 16 bits
Compression mode : Lossy
Stream size : 39.4 MiB (6%)
Writing library : Lavc58.134.100 ac3
Language : English
Service kind : Complete Main
Default : Yes
Forced : No

Text
ID : 3
Format : UTF-8
Codec ID : S_TEXT/UTF8
Codec ID/Info : UTF-8 Plain Text
Duration : 20 min 42 s
Bit rate : 79 b/s
Count of elements : 357
Stream size : 12.1 KiB (0%)
Title : English
Language : English
Default : Yes
Forced : Yes

Menu
00:00:00.000 : :00:00:00.000
00:01:51.945 : :00:01:51.945
00:08:43.231 : :00:08:43.231
00:15:27.009 : :00:15:27.009
00:20:00.157 : :00:20:00.157
00:20:50.666 : :00:20:50.666





Blue Mountain State S01E06


Blue Mountain State S01E06


Blue Mountain State S01E06


Blue Mountain State S01E06


Blue Mountain State S01E06

All episodes