Index
# A B C D E F G H I J K L M N O P Q R S T U V W Y Z
Tags
Language
Tags

Featured TV Shows


Blue Mountain State S02E04

Posted By: Tavaz
720p (HD) / WEB-DL IMDb
Blue Mountain State S02E04

Blue Mountain State S02E04
WEB-DL | MKV | 1280x720 | English | H264 @ 1798 kbps | AC-3 @ 384 kbps | 21 min 27 s | 335 MiB
Subtitles: Suomi, Svenska, Dansk, English
Genre: Comedy


Three incoming freshman in a big-time, Midwestern college football program have to juggle football, girls, class and nonstop hazing.

Blue.Mountain.State.S02E04.NORDiC.720p.WEB-DL.H.264-NORDiC+.mkv (335.2 MB)



General
Unique ID : 201956418954806184756868563745754750793 (0x97EF64378CD4781390119F6846CE9F49)
Complete name : ./Blue.Mountain.State.S02E04.NORDiC.720p.WEB-DL.H.264-NORDiC+.mkv
Format : Matroska
Format version : Version 4 / Version 2
File size : 335 MiB
Duration : 21 min 27 s
Overall bit rate mode : Variable
Overall bit rate : 2 185 kb/s
Encoded date : UTC 2021-06-04 15:20:37
Writing application : mkvmerge v12.0.0 ('Trust / Lust') 32bit
Writing library : libebml v1.3.4 + libmatroska v1.4.5

Video
ID : 1
Format : AVC
Format/Info : Advanced Video Codec
Format profile : Main@L3.1
Format settings : CABAC / 3 Ref Frames
Format settings, CABAC : Yes
Format settings, RefFrames : 3 frames
Format settings, GOP : M=3, N=50
Codec ID : V_MPEG4/ISO/AVC
Duration : 21 min 27 s
Bit rate mode : Variable
Bit rate : 1 798 kb/s
Maximum bit rate : 3 600 kb/s
Width : 1 280 pixels
Height : 720 pixels
Display aspect ratio : 16:9
Frame rate mode : Constant
Frame rate : 25.000 FPS
Color space : YUV
Chroma subsampling : 4:2:0
Bit depth : 8 bits
Scan type : Progressive
Bits/(Pixel*Frame) : 0.078
Stream size : 276 MiB (82%)
Default : Yes
Forced : No

Audio
ID : 2
Format : AC-3
Format/Info : Audio Coding 3
Format settings, Endianness : Big
Codec ID : A_AC3
Duration : 21 min 27 s
Bit rate mode : Constant
Bit rate : 384 kb/s
Channel(s) : 6 channels
Channel positions : Front: L C R, Side: L R, LFE
Sampling rate : 48.0 kHz
Frame rate : 31.250 FPS (1536 SPF)
Bit depth : 16 bits
Compression mode : Lossy
Stream size : 58.9 MiB (18%)
Title : Dolby Digital
Language : English
Service kind : Complete Main
Default : Yes
Forced : No

Text #1
ID : 3
Format : UTF-8
Codec ID : S_TEXT/UTF8
Codec ID/Info : UTF-8 Plain Text
Duration : 20 min 37 s
Bit rate : 63 b/s
Count of elements : 213
Stream size : 9.53 KiB (0%)
Language : Danish
Default : No
Forced : No

Text #2
ID : 4
Format : UTF-8
Codec ID : S_TEXT/UTF8
Codec ID/Info : UTF-8 Plain Text
Duration : 20 min 37 s
Bit rate : 63 b/s
Count of elements : 220
Stream size : 9.66 KiB (0%)
Language : Norwegian
Default : No
Forced : No

Text #3
ID : 5
Format : UTF-8
Codec ID : S_TEXT/UTF8
Codec ID/Info : UTF-8 Plain Text
Duration : 20 min 37 s
Bit rate : 65 b/s
Count of elements : 215
Stream size : 9.87 KiB (0%)
Language : Swedish
Default : No
Forced : No

Text #4
ID : 6
Format : UTF-8
Codec ID : S_TEXT/UTF8
Codec ID/Info : UTF-8 Plain Text
Duration : 20 min 37 s
Bit rate : 64 b/s
Count of elements : 221
Stream size : 9.67 KiB (0%)
Language : Finnish
Default : No
Forced : No

Text #5
ID : 7
Format : UTF-8
Codec ID : S_TEXT/UTF8
Codec ID/Info : UTF-8 Plain Text
Duration : 21 min 10 s
Bit rate : 107 b/s
Count of elements : 449
Stream size : 16.7 KiB (0%)
Language : English
Default : No
Forced : No





Blue Mountain State S02E04


Blue Mountain State S02E04


Blue Mountain State S02E04


Blue Mountain State S02E04


Blue Mountain State S02E04

All episodes