Index
# A B C D E F G H I J K L M N O P Q R S T U V W Y Z
Tags
Language
Tags

Featured TV Shows


Blue Mountain State S02E05

Posted By: Tavaz
1080p (FullHD) / WEBRip IMDb
Blue Mountain State S02E05

Blue Mountain State S02E05
WEB-DL | MKV | 1920x1080 | English / Deutsch | H264 @ 13106 kbps | E-AC-3 @ 224 kbps | 21 min 17 s | 2.08 GiB
Subtitles: English, Deutsch
Genre: Komödie


Alex ist ein talentierter Quarterback, der mit der Ersatzbank zufrieden ist, solange er mit seinem besten Freund Sammy, der unbedingt das Schulmaskottchen werden will, von einer Party zur nächsten ziehen kann. Im Gegensatz zu den beiden wird Craig als die Nummer Eins unter den Neulingen und zukünftiger Football-Profi gehandelt. Das ist jedoch kein Zufall, denn sein Leben ist komplett von seiner kontrollwütigen Freundin durchgeplant.

Sind die drei in der Lage Football, Girls und Uni unter einen Hut zu bringen und all die Schikanen, die ihnen blühen, durchzustehen?

Blue.Mountain.State.S02E05.German.DL.1080p.WEB.h264-OHD.mkv (2.1 GB)



General
Unique ID : 114522486588944730148119538894318658512 (0x56283A8704FB32E45A1230775EC4E3D0)
Complete name : ./Blue.Mountain.State.S02E05.German.DL.1080p.WEB.h264-OHD.mkv
Format : Matroska
Format version : Version 4 / Version 2
File size : 2.08 GiB
Duration : 21 min 17 s
Overall bit rate : 14.0 Mb/s
Encoded date : UTC 2022-01-07 11:29:17
Writing application : mkvmerge v64.0.0 ('Willows') 64-bit
Writing library : libebml v1.4.2 + libmatroska v1.6.4

Video
ID : 1
Format : AVC
Format/Info : Advanced Video Codec
Format profile : High@L4
Format settings : CABAC / 4 Ref Frames
Format settings, CABAC : Yes
Format settings, RefFrames : 4 frames
Codec ID : V_MPEG4/ISO/AVC
Duration : 21 min 17 s
Bit rate : 13.1 Mb/s
Width : 1 920 pixels
Height : 1 080 pixels
Display aspect ratio : 16:9
Frame rate mode : Constant
Frame rate : 23.976 (24000/1001) FPS
Color space : YUV
Chroma subsampling : 4:2:0
Bit depth : 8 bits
Scan type : Progressive
Bits/(Pixel*Frame) : 0.264
Stream size : 1.95 GiB (94%)
Language : German
Default : Yes
Forced : No
Color range : Limited
Color primaries : BT.709
Transfer characteristics : BT.709
Matrix coefficients : BT.709

Audio #1
ID : 2
Format : E-AC-3
Format/Info : Enhanced Audio Coding 3
Format settings, Endianness : Big
Codec ID : A_EAC3
Duration : 21 min 17 s
Bit rate mode : Constant
Bit rate : 224 kb/s
Channel(s) : 2 channels
Channel positions : Front: L R
Sampling rate : 48.0 kHz
Frame rate : 187.500 FPS (256 SPF)
Compression mode : Lossy
Stream size : 34.1 MiB (2%)
Language : German
Service kind : Complete Main
Default : Yes
Forced : No

Audio #2
ID : 3
Format : E-AC-3
Format/Info : Enhanced Audio Coding 3
Format settings, Endianness : Big
Codec ID : A_EAC3
Duration : 21 min 17 s
Bit rate mode : Constant
Bit rate : 640 kb/s
Channel(s) : 6 channels
Channel positions : Front: L C R, Side: L R, LFE
Sampling rate : 48.0 kHz
Frame rate : 187.500 FPS (256 SPF)
Compression mode : Lossy
Stream size : 97.4 MiB (5%)
Language : English
Service kind : Complete Main
Default : Yes
Forced : No

Text #1
ID : 4
Format : UTF-8
Codec ID : S_TEXT/UTF8
Codec ID/Info : UTF-8 Plain Text
Duration : 20 min 43 s
Bit rate : 74 b/s
Count of elements : 316
Stream size : 11.3 KiB (0%)
Title : Deutsch [UT]
Language : German
Default : No
Forced : No

Text #2
ID : 5
Format : UTF-8
Codec ID : S_TEXT/UTF8
Codec ID/Info : UTF-8 Plain Text
Duration : 21 min 4 s
Bit rate : 98 b/s
Count of elements : 448
Stream size : 15.2 KiB (0%)
Title : English
Language : English
Default : No
Forced : No





Blue Mountain State S02E05


Blue Mountain State S02E05


Blue Mountain State S02E05


Blue Mountain State S02E05


Blue Mountain State S02E05

All episodes