Featured TV Shows


Channel Zero S03E01

Posted By: Tavaz
1080p (FullHD) / WEB-DL IMDb
Channel Zero S03E01

Channel Zero S03E01
WEB-DL | MKV | 1920x1080 | English | H264 @ 6962 kbps | E-AC-3 @ 640 kbps | 44 min 33 s | 2.37 GiB
Subtitles: English
Genre: Drama

A horror anthology series inspired by “Creepypasta” online tales.

Channel.Zero.S03E01.Insidious.Onset.1080p.AMZN.WEB-DL.DD5.1.H.264-SiGMA.mkv (2.4 GB)



General
Unique ID : 142749160976275752465506319759978041379 (0x6B647D058E7A87EEF16E75B711E49023)
Complete name : ./Channel.Zero.S03E01.Insidious.Onset.1080p.AMZN.WEB-DL.DD5.1.H.264-SiGMA.mkv
Format : Matroska
Format version : Version 4 / Version 2
File size : 2.37 GiB
Duration : 44 min 33 s
Overall bit rate mode : Variable
Overall bit rate : 7 604 kb/s
Encoded date : UTC 2018-02-08 19:18:03
Writing application : mkvmerge v20.0.0 ('I Am The Sun') 64-bit
Writing library : libebml v1.3.5 + libmatroska v1.4.8

Video
ID : 1
Format : AVC
Format/Info : Advanced Video Codec
Format profile : High@L4
Format settings : CABAC / 4 Ref Frames
Format settings, CABAC : Yes
Format settings, RefFrames : 4 frames
Codec ID : V_MPEG4/ISO/AVC
Duration : 44 min 33 s
Bit rate mode : Variable
Bit rate : 6 962 kb/s
Maximum bit rate : 15.0 Mb/s
Width : 1 920 pixels
Height : 1 080 pixels
Display aspect ratio : 16:9
Frame rate mode : Constant
Frame rate : 23.976 (24000/1001) FPS
Color space : YUV
Chroma subsampling : 4:2:0
Bit depth : 8 bits
Scan type : Progressive
Bits/(Pixel*Frame) : 0.140
Stream size : 2.17 GiB (92%)
Default : Yes
Forced : No
Color range : Limited
Color primaries : BT.709
Transfer characteristics : BT.709
Matrix coefficients : BT.709

Audio
ID : 2
Format : E-AC-3
Format/Info : Enhanced Audio Coding 3
Format settings, Endianness : Big
Codec ID : A_EAC3
Duration : 44 min 33 s
Bit rate mode : Constant
Bit rate : 640 kb/s
Channel(s) : 6 channels
Channel positions : Front: L C R, Side: L R, LFE
Sampling rate : 48.0 kHz
Frame rate : 187.500 FPS (256 SPF)
Compression mode : Lossy
Stream size : 204 MiB (8%)
Language : English
Service kind : Complete Main
Default : Yes
Forced : No

Text
ID : 3
Format : UTF-8
Codec ID : S_TEXT/UTF8
Codec ID/Info : UTF-8 Plain Text
Duration : 43 min 22 s
Bit rate : 58 b/s
Count of elements : 725
Stream size : 18.6 KiB (0%)
Language : English
Default : No
Forced : No





Channel Zero S03E01


Channel Zero S03E01


Channel Zero S03E01


Channel Zero S03E01


Channel Zero S03E01

All episodes