Featured TV Shows


Channel Zero S03E03

Posted By: Tavaz
720p (HD) / WEBRip IMDb
Channel Zero S03E03

Channel Zero S03E03
WEBRip | MKV | 1280x720 | English | H264 @ 2210 kbps | E-AC-3 @ 640 kbps | 43 min 44 s | 892 MiB
Subtitles: English
Genre: Drama

A horror anthology series inspired by “Creepypasta” online tales.

Channel.Zero.S03E03.All.You.Ghost.Mice.720p.AMZN.WEB-DL.DD+5.1.H.264-SiGMA.mkv (892.3 MB)



General
Unique ID : 173698853834469891095734430815772860972 (0x82AD2EB125BB9FDDA98D7FA78839E22C)
Complete name : ./Channel.Zero.S03E03.All.You.Ghost.Mice.720p.AMZN.WEB-DL.DD+5.1.H.264-SiGMA.mkv
Format : Matroska
Format version : Version 4 / Version 2
File size : 892 MiB
Duration : 43 min 44 s
Overall bit rate mode : Variable
Overall bit rate : 2 852 kb/s
Encoded date : UTC 2018-02-22 12:58:45
Writing application : mkvmerge v20.0.0 ('I Am The Sun') 64-bit
Writing library : libebml v1.3.5 + libmatroska v1.4.8

Video
ID : 1
Format : AVC
Format/Info : Advanced Video Codec
Format profile : High@L3.1
Format settings : CABAC / 5 Ref Frames
Format settings, CABAC : Yes
Format settings, RefFrames : 5 frames
Codec ID : V_MPEG4/ISO/AVC
Duration : 43 min 44 s
Bit rate mode : Variable
Bit rate : 2 210 kb/s
Maximum bit rate : 4 500 kb/s
Width : 1 280 pixels
Height : 720 pixels
Display aspect ratio : 16:9
Frame rate mode : Constant
Frame rate : 23.976 (24000/1001) FPS
Color space : YUV
Chroma subsampling : 4:2:0
Bit depth : 8 bits
Scan type : Progressive
Bits/(Pixel*Frame) : 0.100
Stream size : 691 MiB (77%)
Default : Yes
Forced : No
Color range : Limited
Color primaries : BT.709
Transfer characteristics : BT.709
Matrix coefficients : BT.709

Audio
ID : 2
Format : E-AC-3
Format/Info : Enhanced Audio Coding 3
Format settings, Endianness : Big
Codec ID : A_EAC3
Duration : 43 min 44 s
Bit rate mode : Constant
Bit rate : 640 kb/s
Channel(s) : 6 channels
Channel positions : Front: L C R, Side: L R, LFE
Sampling rate : 48.0 kHz
Frame rate : 187.500 FPS (256 SPF)
Compression mode : Lossy
Stream size : 200 MiB (22%)
Language : English
Service kind : Complete Main
Default : Yes
Forced : No

Text
ID : 3
Format : UTF-8
Codec ID : S_TEXT/UTF8
Codec ID/Info : UTF-8 Plain Text
Duration : 42 min 45 s
Bit rate : 39 b/s
Count of elements : 560
Stream size : 12.4 KiB (0%)
Title : English
Language : English
Default : No
Forced : No





Channel Zero S03E03


Channel Zero S03E03


Channel Zero S03E03


Channel Zero S03E03


Channel Zero S03E03

All episodes