Featured TV Shows


Channel Zero S04E03

Posted By: Tavaz
720p (HD) / WEBRip IMDb
Channel Zero S04E03

Channel Zero S04E03
WEBRip | MKV | 1280x720 | English | H264 @ 2560 kbps | AAC @ 96 kbps | 42 min 3 s | 801 MiB
Genre: Drama

A horror anthology series inspired by “Creepypasta” online tales.

channel.zero.s04e03.720p.web.x264-tbs.mkv (801.0 MB)
sample-channel.zero.s04e03.720p.web.x264-tbs.mkv (18.6 MB)



General
Unique ID : 222101165262949976594866091569618076874 (0xA71720E47AC4318E3E8E86F54B13C4CA)
Complete name : ./channel.zero.s04e03.720p.web.x264-tbs.mkv
Format : Matroska
Format version : Version 4 / Version 2
File size : 801 MiB
Duration : 42 min 3 s
Overall bit rate : 2 663 kb/s
Encoded date : UTC 2018-10-27 04:21:32
Writing application : mkvmerge v23.0.0 ('The Bride Said No') 64-bit
Writing library : libebml v1.3.6 + libmatroska v1.4.9

Video
ID : 1
Format : AVC
Format/Info : Advanced Video Codec
Format profile : Main@L3.1
Format settings : CABAC / 1 Ref Frames
Format settings, CABAC : Yes
Format settings, RefFrames : 1 frame
Format settings, GOP : M=1, N=48
Codec ID : V_MPEG4/ISO/AVC
Duration : 42 min 3 s
Bit rate : 2 560 kb/s
Width : 1 280 pixels
Height : 720 pixels
Display aspect ratio : 16:9
Frame rate mode : Constant
Frame rate : 23.976 (24000/1001) FPS
Color space : YUV
Chroma subsampling : 4:2:0
Bit depth : 8 bits
Scan type : Progressive
Bits/(Pixel*Frame) : 0.116
Stream size : 772 MiB (96%)
Writing library : x264 core 152
Encoding settings : cabac=1 / ref=1 / deblock=1:0:0 / analyse=0x1:0x111 / me=hex / subme=6 / psy=1 / psy_rd=1.00:0.00 / mixed_ref=0 / me_range=16 / chroma_me=0 / trellis=1 / 8x8dct=0 / cqm=0 / deadzone=21,11 / fast_pskip=1 / chroma_qp_offset=-2 / threads=8 / lookahead_threads=1 / sliced_threads=0 / nr=0 / decimate=1 / interlaced=0 / bluray_compat=0 / constrained_intra=0 / bframes=0 / weightp=2 / keyint=48 / keyint_min=25 / scenecut=0 / intra_refresh=0 / rc=abr / mbtree=0 / bitrate=2560 / ratetol=1.0 / qcomp=0.60 / qpmin=10 / qpmax=51 / qpstep=4 / ip_ratio=1.40 / aq=1:1.00
Default : Yes
Forced : No

Audio
ID : 2
Format : AAC
Format/Info : Advanced Audio Codec
Format profile : LC
Codec ID : A_AAC-2
Duration : 42 min 3 s
Bit rate : 96.0 kb/s
Channel(s) : 2 channels
Channel positions : Front: L R
Sampling rate : 44.1 kHz
Frame rate : 43.066 FPS (1024 SPF)
Compression mode : Lossy
Stream size : 28.8 MiB (4%)
Default : Yes
Forced : No





Channel Zero S04E03


Channel Zero S04E03


Channel Zero S04E03


Channel Zero S04E03


Channel Zero S04E03

All episodes