Chicago Fire S06E10

Posted By: Tavaz
SD / HDTV IMDb
Chicago Fire S06E10

Chicago Fire S06E10
HDTV | MKV | 720x406 | English | H264 @ 825 kbps | AC-3 @ 192 kbps | 38 min 30 s | 286 MiB
Genre: Drama

Für die Feuerwehrmänner und Rettungssanitäter der Feuerwache 51 in Chicago sind Stress und Gefahren an der Tagesordnung. Die enorme Verantwortung, der sich die Alltagshelden aussetzen, macht auch vor dem Privatleben nicht halt. Matthew Casey, der Chef von Truck 81, steckt gerade mitten in einer Scheidung und sucht in seinem Job Ablenkung. Nach dem Tod eines Feuerwehrmanns gerät er mit Kelly Severide, dem Anführer von Rescue Squad 3, aneinander. Trotz gelegentlicher Scharmützel ist das Department für die meisten Teammitglieder wie eine Ersatzfamilie, zumal die bisweilen traumatischen Erlebnisse während der Einsätze für eine emotionale Bindung sorgen.

Das Actiondrama wird produziert von Dick Wolf, dem Erfinder des „Law & Order“-Franchises. Die beiden Serienschöpfer Michael Brandt und Derek Haas haben zuvor die Drehbücher zu Kinofilmen wie „Wanted“ und „Todeszug nach Yuma“ verfasst. Die Serie wird vor Ort in Chicago gedreht, was Bürgermeister Rahm Emanuel bereits zu einem Cameo-Auftritt veranlasst hat. Der Pilotfilm wurde von „Homeland“-Regisseur Jeffrey Nachmanoff inszeniert.

SF S06E10.mkv (286.1 MB)



General
Unique ID : 217013149672114795312048083878247441621 (0xA343365B1F91CB15B839F392A11CA4D5)
Complete name : ./SF Feuerwehrmaenner S06E10 German/SF S06E10.mkv
Format : Matroska
Format version : Version 1
File size : 286 MiB
Duration : 38 min 30 s
Overall bit rate : 1 039 kb/s
Encoded date : UTC 2018-05-22 02:22:52
Writing application : mkvmerge v2.2.0 ('Turn It On Again') built on Mar 4 2008 12:58:26
Writing library : libebml v0.7.7 + libmatroska v0.8.1

Video
ID : 1
Format : AVC
Format/Info : Advanced Video Codec
Format profile : High@L3.1
Format settings : CABAC / 5 Ref Frames
Format settings, CABAC : Yes
Format settings, RefFrames : 5 frames
Codec ID : V_MPEG4/ISO/AVC
Duration : 38 min 30 s
Bit rate : 826 kb/s
Width : 720 pixels
Height : 406 pixels
Display aspect ratio : 16:9
Frame rate mode : Constant
Frame rate : 25.000 FPS
Color space : YUV
Chroma subsampling : 4:2:0
Bit depth : 8 bits
Scan type : Progressive
Bits/(Pixel*Frame) : 0.113
Stream size : 228 MiB (80%)
Writing library : x264 core 152 r2851 ba24899
Encoding settings : cabac=1 / ref=5 / deblock=1:0:0 / analyse=0x3:0x113 / me=hex / subme=8 / psy=1 / psy_rd=1.00:0.00 / mixed_ref=1 / me_range=16 / chroma_me=1 / trellis=2 / 8x8dct=1 / cqm=0 / deadzone=21,11 / fast_pskip=1 / chroma_qp_offset=-2 / threads=12 / lookahead_threads=2 / sliced_threads=0 / nr=0 / decimate=1 / interlaced=0 / bluray_compat=0 / constrained_intra=0 / bframes=3 / b_pyramid=2 / b_adapt=1 / b_bias=0 / direct=3 / weightb=1 / open_gop=0 / weightp=2 / keyint=250 / keyint_min=23 / scenecut=40 / intra_refresh=0 / rc_lookahead=50 / rc=crf / mbtree=1 / crf=19.0 / qcomp=0.60 / qpmin=0 / qpmax=69 / qpstep=4 / ip_ratio=1.40 / aq=1:1.00
Default : Yes
Forced : No

Audio
ID : 2
Format : AC-3
Format/Info : Audio Coding 3
Format settings, Endianness : Big
Codec ID : A_AC3
Duration : 38 min 30 s
Bit rate mode : Constant
Bit rate : 192 kb/s
Channel(s) : 2 channels
Channel positions : Front: L R
Sampling rate : 48.0 kHz
Frame rate : 31.250 FPS (1536 SPF)
Bit depth : 16 bits
Compression mode : Lossy
Stream size : 52.9 MiB (18%)
Service kind : Complete Main
Default : Yes
Forced : No





Chicago Fire S06E10


Chicago Fire S06E10


Chicago Fire S06E10


Chicago Fire S06E10


Chicago Fire S06E10

All episodes