Damnation S01E02

Posted By: Tavaz
720p (HD) / WEB-DL IMDb
Damnation S01E02

Damnation S01E02
WEB-DL | MKV | 1280x720 | English | H264 @ 1833 kbps | E-AC-3 @ 640 kbps | 41 min 59 s | 743 MiB
Subtitles: English
Genre: Western

Seth Davenport is masquerading as a small town Iowa preacher in the hopes of starting a full-blown insurrection against the status quo, unaware that an industrialist tycoon has hired a professional strikebreaker to stop the uprising by any means necessary. An epic saga of the secret history of the 1930’s American heartland, chronicling the mythic conflict and bloody struggle between big money and the downtrodden, God and greed, charlatans, and prophets.

1ef4d8e9f79c4829827348e6bac17fda.mkv (743.4 MB)



General
Unique ID : 16769171983891863567063431043018583253 (0xC9DA0030E6ABDF6447DCE94C1B6ECD5)
Complete name : ./1ef4d8e9f79c4829827348e6bac17fda.mkv
Format : Matroska
Format version : Version 4 / Version 2
File size : 743 MiB
Duration : 41 min 59 s
Overall bit rate mode : Variable
Overall bit rate : 2 475 kb/s
Encoded date : UTC 2017-11-18 14:38:19
Writing application : mkvmerge v17.0.0 ('Be Ur Friend') 64-bit
Writing library : libebml v1.3.5 + libmatroska v1.4.8

Video
ID : 1
Format : AVC
Format/Info : Advanced Video Codec
Format profile : High@L3.1
Format settings : CABAC / 5 Ref Frames
Format settings, CABAC : Yes
Format settings, RefFrames : 5 frames
Codec ID : V_MPEG4/ISO/AVC
Duration : 41 min 59 s
Bit rate mode : Variable
Bit rate : 1 833 kb/s
Maximum bit rate : 4 500 kb/s
Width : 1 280 pixels
Height : 720 pixels
Display aspect ratio : 16:9
Frame rate mode : Constant
Frame rate : 23.976 (24000/1001) FPS
Color space : YUV
Chroma subsampling : 4:2:0
Bit depth : 8 bits
Scan type : Progressive
Bits/(Pixel*Frame) : 0.083
Stream size : 551 MiB (74%)
Default : Yes
Forced : No
Color range : Limited
Color primaries : BT.709
Transfer characteristics : BT.709
Matrix coefficients : BT.709

Audio
ID : 2
Format : E-AC-3
Format/Info : Enhanced Audio Coding 3
Format settings, Endianness : Big
Codec ID : A_EAC3
Duration : 41 min 59 s
Bit rate mode : Constant
Bit rate : 640 kb/s
Channel(s) : 6 channels
Channel positions : Front: L C R, Side: L R, LFE
Sampling rate : 48.0 kHz
Frame rate : 187.500 FPS (256 SPF)
Compression mode : Lossy
Stream size : 192 MiB (26%)
Language : English
Service kind : Complete Main
Default : Yes
Forced : No

Text
ID : 3
Format : UTF-8
Codec ID : S_TEXT/UTF8
Codec ID/Info : UTF-8 Plain Text
Duration : 41 min 29 s
Bit rate : 66 b/s
Count of elements : 765
Stream size : 20.1 KiB (0%)
Language : English
Default : No
Forced : No





Damnation S01E02


Damnation S01E02


Damnation S01E02


Damnation S01E02


Damnation S01E02

All episodes