Days of Our Lives S54E98

Posted By: Tavaz
720p (HD) / WEBRip IMDb
Days of Our Lives S54E98

Days of Our Lives S54E98
WEBRip | MKV | 1280x720 | English | H264 @ 2560 kbps | AAC @ 75 kbps | 37 min 25 s | 702 MiB
Genre: Drama

The Horton and Brady broods endure the romantic trials of life in Salem, a Midwestern hamlet filled with evil geniuses, star-crossed lovers and a rich family history.

711d5f1438b347b6a808dab7bf2d82ba.mkv (702.1 MB)



General
Unique ID : 210436068964558547767969923613253013069 (0x9E50833DAC2AB73D6DF3DC1FEDB18E4D)
Complete name : ./711d5f1438b347b6a808dab7bf2d82ba.mkv
Format : Matroska
Format version : Version 4 / Version 2
File size : 702 MiB
Duration : 37 min 25 s
Overall bit rate : 2 623 kb/s
Encoded date : UTC 2019-02-12 08:34:39
Writing application : mkvmerge v29.0.0 ('Like It Or Not') 64-bit
Writing library : libebml v1.3.6 + libmatroska v1.4.9

Video
ID : 1
Format : AVC
Format/Info : Advanced Video Codec
Format profile : Main@L3.1
Format settings : CABAC / 1 Ref Frames
Format settings, CABAC : Yes
Format settings, RefFrames : 1 frame
Format settings, GOP : M=1, N=60
Codec ID : V_MPEG4/ISO/AVC
Duration : 37 min 25 s
Bit rate : 2 560 kb/s
Width : 1 280 pixels
Height : 720 pixels
Display aspect ratio : 16:9
Frame rate mode : Constant
Frame rate : 29.970 (30000/1001) FPS
Color space : YUV
Chroma subsampling : 4:2:0
Bit depth : 8 bits
Scan type : Progressive
Bits/(Pixel*Frame) : 0.093
Stream size : 681 MiB (97%)
Writing library : x264 core 152
Encoding settings : cabac=1 / ref=1 / deblock=1:0:0 / analyse=0x1:0x111 / me=hex / subme=6 / psy=1 / psy_rd=1.00:0.00 / mixed_ref=0 / me_range=16 / chroma_me=0 / trellis=1 / 8x8dct=0 / cqm=0 / deadzone=21,11 / fast_pskip=1 / chroma_qp_offset=-2 / threads=8 / lookahead_threads=1 / sliced_threads=0 / nr=0 / decimate=1 / interlaced=0 / bluray_compat=0 / constrained_intra=0 / bframes=0 / weightp=2 / keyint=60 / keyint_min=25 / scenecut=0 / intra_refresh=0 / rc=abr / mbtree=0 / bitrate=2560 / ratetol=1.0 / qcomp=0.60 / qpmin=10 / qpmax=51 / qpstep=4 / ip_ratio=1.40 / aq=1:1.00
Default : Yes
Forced : No

Audio
ID : 2
Format : AAC
Format/Info : Advanced Audio Codec
Format profile : LC
Codec ID : A_AAC-2
Duration : 37 min 25 s
Bit rate : 75.6 kb/s
Channel(s) : 2 channels
Channel positions : Front: L R
Sampling rate : 44.1 kHz
Frame rate : 43.066 FPS (1024 SPF)
Compression mode : Lossy
Stream size : 20.2 MiB (3%)
Default : Yes
Forced : No





Days of Our Lives S54E98


Days of Our Lives S54E98


Days of Our Lives S54E98


Days of Our Lives S54E98


Days of Our Lives S54E98

All episodes