Featured TV Shows


Death in Paradise S08E07

Posted By: Tavaz
SD / WEB-DL IMDb
Death in Paradise S08E07

Death in Paradise S08E07
WEB-DL | MKV | 960x540 | English | H264 @ 2780 kbps | AAC @ 96 kbps | 57 min 57 s | 1.17 GiB
Genre: Comedy, Crime, Drama, Mystery

Detective Inspector Richard Poole is transferred to Sainte Marie, an island in the Caribbean. Totally unsuited to the Caribbean way of life, Richard hates the sun, sea and sand and isn't used to the Sainte Marie style of policing. Working with the exotic Camille each week Richard investigates intricate and intriguing murders.

763e6f68c0f549b4872dde6ed0d41759.mkv (1.2 GB)



General
Unique ID : 197453022129601834208217235306704325874 (0x948C119C699A9302CA9401A6F048CCF2)
Complete name : ./763e6f68c0f549b4872dde6ed0d41759.mkv
Format : Matroska
Format version : Version 4 / Version 2
File size : 1.17 GiB
Duration : 57 min 57 s
Overall bit rate : 2 879 kb/s
Encoded date : UTC 2019-02-22 06:18:22
Writing application : mkvmerge v29.0.0 ('Like It Or Not') 64-bit
Writing library : libebml v1.3.6 + libmatroska v1.4.9

Video
ID : 1
Format : AVC
Format/Info : Advanced Video Codec
Format profile : High@L3.1
Format settings : CABAC / 4 Ref Frames
Format settings, CABAC : Yes
Format settings, RefFrames : 4 frames
Codec ID : V_MPEG4/ISO/AVC
Duration : 57 min 57 s
Bit rate : 2 780 kb/s
Width : 960 pixels
Height : 540 pixels
Display aspect ratio : 16:9
Frame rate mode : Constant
Frame rate : 50.000 FPS
Color space : YUV
Chroma subsampling : 4:2:0
Bit depth : 8 bits
Scan type : Progressive
Bits/(Pixel*Frame) : 0.107
Stream size : 1.13 GiB (97%)
Default : Yes
Forced : No
Color range : Limited
Color primaries : BT.709
Transfer characteristics : BT.709
Matrix coefficients : BT.709

Audio
ID : 2
Format : AAC
Format/Info : Advanced Audio Codec
Format profile : HE-AAC / LC
Format settings : Explicit
Codec ID : A_AAC-2
Duration : 57 min 57 s
Bit rate : 96.0 kb/s
Channel(s) : 2 channels
Channel positions : Front: L R
Sampling rate : 48.0 kHz / 24.0 kHz
Frame rate : 23.438 FPS (1024 SPF)
Compression mode : Lossy
Delay relative to video : -20 ms
Stream size : 39.3 MiB (3%)
Default : Yes
Forced : No

Text
ID : 3
Format : UTF-8
Codec ID : S_TEXT/UTF8
Codec ID/Info : UTF-8 Plain Text
Duration : 57 min 25 s
Bit rate : 95 b/s
Count of elements : 992
Stream size : 40.3 KiB (0%)
Default : Yes
Forced : No





Death in Paradise S08E07


Death in Paradise S08E07


Death in Paradise S08E07


Death in Paradise S08E07


Death in Paradise S08E07

All episodes