Index
# A B C D E F G H I J K L M N O P Q R S T U V W Y Z
Tags
Language
Tags

Featured TV Shows


Devs S01E01

Posted By: Tavaz
1080p (FullHD) / WEBRip IMDb
Devs S01E01

Devs S01E01
WEBRip | MKV | 1920x1080 | H264 @ 3340 kbps | E-AC-3 @ 256 kbps | 56 min 33 s | 1.42 GiB
Subtitles: English
Genre: Drama

Young computer engineer Lily Chan investigates the secretive development division of her employer, a cutting-edge tech company based in San Francisco, which she believes is behind the murder of her boyfriend.

27e94e9c3fc62e26fb00b43c6f39e8d3.mkv (1.4 GB)



General
Unique ID : 292581287425585292318461132038269045349 (0xDC1D1B33FD09187CC87663B2F54C0A65)
Complete name : ./27e94e9c3fc62e26fb00b43c6f39e8d3.mkv
Format : Matroska
Format version : Version 4 / Version 2
File size : 1.42 GiB
Duration : 56 min 33 s
Overall bit rate : 3 598 kb/s
Encoded date : UTC 2020-03-05 09:03:02
Writing application : mkvmerge v38.0.0 ('The Silent Type') 64-bit
Writing library : libebml v1.3.9 + libmatroska v1.5.2

Video
ID : 1
Format : AVC
Format/Info : Advanced Video Codec
Format profile : High@L4
Format settings : CABAC / 4 Ref Frames
Format settings, CABAC : Yes
Format settings, RefFrames : 4 frames
Codec ID : V_MPEG4/ISO/AVC
Duration : 56 min 33 s
Bit rate : 3 340 kb/s
Width : 1 920 pixels
Height : 1 080 pixels
Display aspect ratio : 16:9
Frame rate mode : Constant
Frame rate : 23.976 (24000/1001) FPS
Color space : YUV
Chroma subsampling : 4:2:0
Bit depth : 8 bits
Scan type : Progressive
Bits/(Pixel*Frame) : 0.067
Stream size : 1.32 GiB (93%)
Default : Yes
Forced : No

Audio
ID : 2
Format : E-AC-3
Format/Info : Enhanced Audio Coding 3
Format settings, Endianness : Big
Codec ID : A_EAC3
Duration : 56 min 33 s
Bit rate mode : Constant
Bit rate : 256 kb/s
Channel(s) : 6 channels
Channel positions : Front: L C R, Side: L R, LFE
Sampling rate : 48.0 kHz
Frame rate : 187.500 FPS (256 SPF)
Compression mode : Lossy
Delay relative to video : 12 ms
Stream size : 104 MiB (7%)
Service kind : Complete Main
Default : Yes
Forced : No

Text
ID : 3
Format : S_TEXT/WEBVTT
Codec ID : S_TEXT/WEBVTT
Duration : 54 min 47 s
Bit rate : 38 b/s
Count of elements : 514
Stream size : 15.4 KiB (0%)
Language : English
Default : Yes
Forced : No





Devs S01E01


Devs S01E01


Devs S01E01


Devs S01E01


Devs S01E01

All episodes