Index
# A B C D E F G H I J K L M N O P Q R S T U V W Y Z
Tags
Language
Tags

Featured TV Shows


Devs S01E02

Posted By: Tavaz
1080p (FullHD) / WEB-DL IMDb
Devs S01E02

Devs S01E02
WEB-DL | MKV | 1920x1080 | English | H264 @ 3236 kbps | E-AC-3 @ 256 kbps | 50 min 14 s | 1.23 GiB
Subtitles: English
Genre: Drama


Young computer engineer Lily Chan investigates the secretive development division of her employer, a cutting-edge tech company based in San Francisco, which she believes is behind the murder of her boyfriend.

25bfad086e1845238242ff1bab999307.mkv (1.2 GB)



General
Unique ID : 24742056229342830115832571603083179294 (0x129D258DFC5941A38042AD5CD685B51E)
Complete name : ./25bfad086e1845238242ff1bab999307.mkv
Format : Matroska
Format version : Version 4 / Version 2
File size : 1.23 GiB
Duration : 50 min 14 s
Overall bit rate : 3 494 kb/s
Encoded date : UTC 2020-03-05 12:08:02
Writing application : mkvmerge v42.0.0 ('Overtime') 64-bit
Writing library : libebml v1.3.10 + libmatroska v1.5.2

Video
ID : 1
Format : AVC
Format/Info : Advanced Video Codec
Format profile : High@L4
Format settings : CABAC / 4 Ref Frames
Format settings, CABAC : Yes
Format settings, RefFrames : 4 frames
Codec ID : V_MPEG4/ISO/AVC
Duration : 50 min 14 s
Bit rate : 3 236 kb/s
Width : 1 920 pixels
Height : 1 080 pixels
Display aspect ratio : 16:9
Frame rate mode : Constant
Frame rate : 23.976 (24000/1001) FPS
Color space : YUV
Chroma subsampling : 4:2:0
Bit depth : 8 bits
Scan type : Progressive
Bits/(Pixel*Frame) : 0.065
Stream size : 1.14 GiB (93%)
Default : Yes
Forced : No

Audio
ID : 2
Format : E-AC-3
Format/Info : Enhanced Audio Coding 3
Format settings, Endianness : Big
Codec ID : A_EAC3
Duration : 50 min 14 s
Bit rate mode : Constant
Bit rate : 256 kb/s
Channel(s) : 6 channels
Channel positions : Front: L C R, Side: L R, LFE
Sampling rate : 48.0 kHz
Frame rate : 187.500 FPS (256 SPF)
Compression mode : Lossy
Stream size : 92.0 MiB (7%)
Language : English
Service kind : Complete Main
Default : Yes
Forced : No

Text
ID : 3
Format : UTF-8
Codec ID : S_TEXT/UTF8
Codec ID/Info : UTF-8 Plain Text
Duration : 47 min 20 s
Bit rate : 40 b/s
Count of elements : 480
Stream size : 14.0 KiB (0%)
Language : English
Default : No
Forced : No





Devs S01E02


Devs S01E02


Devs S01E02


Devs S01E02


Devs S01E02

All episodes