Index
# A B C D E F G H I J K L M N O P Q R S T U V W Y Z
Tags
Language
Tags

Featured TV Shows


Devs S01E03

Posted By: Tavaz
1080p (FullHD) / WEBRip IMDb
Devs S01E03

Devs S01E03
WEBRip | MKV | 1920x1080 | English | H264 @ 3355 kbps | E-AC-3 @ 256 kbps | 42 min 55 s | 1.08 GiB
Subtitles: English
Genre: Drama


Young computer engineer Lily Chan investigates the secretive development division of her employer, a cutting-edge tech company based in San Francisco, which she believes is behind the murder of her boyfriend.

a91f99c692e142108be2b97bdc301a62.mkv (1.1 GB)



General
Unique ID : 44578255976770342748699026726869598978 (0x218975B5CEE28F2484AC96FBC3810302)
Complete name : ./a91f99c692e142108be2b97bdc301a62.mkv
Format : Matroska
Format version : Version 4 / Version 2
File size : 1.08 GiB
Duration : 42 min 55 s
Overall bit rate : 3 614 kb/s
Encoded date : UTC 2020-03-12 04:01:41
Writing application : mkvmerge v41.0.0 ('Smarra') 64-bit
Writing library : libebml v1.3.9 + libmatroska v1.5.2

Video
ID : 1
Format : AVC
Format/Info : Advanced Video Codec
Format profile : High@L4
Format settings : CABAC / 4 Ref Frames
Format settings, CABAC : Yes
Format settings, RefFrames : 4 frames
Codec ID : V_MPEG4/ISO/AVC
Duration : 42 min 55 s
Bit rate : 3 356 kb/s
Width : 1 920 pixels
Height : 1 080 pixels
Display aspect ratio : 16:9
Frame rate mode : Constant
Frame rate : 23.976 (24000/1001) FPS
Color space : YUV
Chroma subsampling : 4:2:0
Bit depth : 8 bits
Scan type : Progressive
Bits/(Pixel*Frame) : 0.067
Stream size : 1.01 GiB (93%)
Language : English
Default : Yes
Forced : No

Audio
ID : 2
Format : E-AC-3
Format/Info : Enhanced Audio Coding 3
Format settings, Endianness : Big
Codec ID : A_EAC3
Duration : 42 min 55 s
Bit rate mode : Constant
Bit rate : 256 kb/s
Channel(s) : 6 channels
Channel positions : Front: L C R, Side: L R, LFE
Sampling rate : 48.0 kHz
Frame rate : 187.500 FPS (256 SPF)
Compression mode : Lossy
Stream size : 78.6 MiB (7%)
Language : English
Service kind : Complete Main
Default : Yes
Forced : No

Text
ID : 3
Format : UTF-8
Codec ID : S_TEXT/UTF8
Codec ID/Info : UTF-8 Plain Text
Duration : 42 min 28 s
Bit rate : 51 b/s
Count of elements : 585
Stream size : 15.9 KiB (0%)
Title : English
Language : English
Default : No
Forced : No





Devs S01E03


Devs S01E03


Devs S01E03


Devs S01E03


Devs S01E03

All episodes