Index
# A B C D E F G H I J K L M N O P Q R S T U V W Y Z
Tags
Language
Tags

Featured TV Shows


Devs S01E05

Posted By: Tavaz
720p (HD) / WEBRip IMDb
Devs S01E05

Devs S01E05
WEBRip | MKV | 1280x720 | English | H264 @ 1399 kbps | E-AC-3 @ 256 kbps | 46 min 16 s | 548 MiB
Subtitles: English
Genre: Drama, Mystery


Young computer engineer Lily Chan investigates the secretive development division of her employer, a cutting-edge tech company based in San Francisco, which she believes is behind the murder of her boyfriend.

69719789ee8f4b27bcdc821f6a80ec04.mkv (548.4 MB)



General
Unique ID : 155283411623093711636805922376073081114 (0x74D27F4A8A72980359622D618E2FF11A)
Complete name : ./69719789ee8f4b27bcdc821f6a80ec04.mkv
Format : Matroska
Format version : Version 4 / Version 2
File size : 548 MiB
Duration : 46 min 16 s
Overall bit rate : 1 657 kb/s
Encoded date : UTC 2020-03-26 04:01:31
Writing application : mkvmerge v44.0.0 ('Domino') 64-bit
Writing library : libebml v1.3.10 + libmatroska v1.5.2

Video
ID : 1
Format : AVC
Format/Info : Advanced Video Codec
Format profile : High@L3.1
Format settings : CABAC / 5 Ref Frames
Format settings, CABAC : Yes
Format settings, RefFrames : 5 frames
Codec ID : V_MPEG4/ISO/AVC
Duration : 46 min 16 s
Bit rate : 1 399 kb/s
Width : 1 280 pixels
Height : 720 pixels
Display aspect ratio : 16:9
Frame rate mode : Constant
Frame rate : 23.976 (24000/1001) FPS
Color space : YUV
Chroma subsampling : 4:2:0
Bit depth : 8 bits
Scan type : Progressive
Bits/(Pixel*Frame) : 0.063
Stream size : 463 MiB (84%)
Language : English
Default : Yes
Forced : No

Audio
ID : 2
Format : E-AC-3
Format/Info : Enhanced Audio Coding 3
Format settings, Endianness : Big
Codec ID : A_EAC3
Duration : 46 min 16 s
Bit rate mode : Constant
Bit rate : 256 kb/s
Channel(s) : 6 channels
Channel positions : Front: L C R, Side: L R, LFE
Sampling rate : 48.0 kHz
Frame rate : 187.500 FPS (256 SPF)
Compression mode : Lossy
Stream size : 84.7 MiB (15%)
Language : English
Service kind : Complete Main
Default : Yes
Forced : No

Text
ID : 3
Format : UTF-8
Codec ID : S_TEXT/UTF8
Codec ID/Info : UTF-8 Plain Text
Duration : 44 min 34 s
Bit rate : 43 b/s
Count of elements : 488
Stream size : 14.3 KiB (0%)
Title : English
Language : English
Default : No
Forced : No





Devs S01E05


Devs S01E05


Devs S01E05


Devs S01E05


Devs S01E05

All episodes