Index
# A B C D E F G H I J K L M N O P Q R S T U V W Y Z
Tags
Language
Tags

Featured TV Shows


Devs S01E06

Posted By: Tavaz
1080p (FullHD) / WEBRip IMDb
Devs S01E06

Devs S01E06
WEBRip | MKV | 1920x1080 | English | H264 @ 2294 kbps | E-AC-3 @ 256 kbps | 51 min 28 s | 939 MiB
Subtitles: English
Genre: Drama, Mystery


Young computer engineer Lily Chan investigates the secretive development division of her employer, a cutting-edge tech company based in San Francisco, which she believes is behind the murder of her boyfriend.

550684d63b144543bf696ebf75b2ad0e.mkv (939.4 MB)



General
Unique ID : 29773348739750945355751269244402006399 (0x1666236D69AE19FE1B9FC2620D8DF97F)
Complete name : ./550684d63b144543bf696ebf75b2ad0e.mkv
Format : Matroska
Format version : Version 4 / Version 2
File size : 939 MiB
Duration : 51 min 28 s
Overall bit rate : 2 552 kb/s
Encoded date : UTC 2020-04-02 04:01:36
Writing application : mkvmerge v44.0.0 ('Domino') 64-bit
Writing library : libebml v1.3.10 + libmatroska v1.5.2

Video
ID : 1
Format : AVC
Format/Info : Advanced Video Codec
Format profile : High@L4
Format settings : CABAC / 4 Ref Frames
Format settings, CABAC : Yes
Format settings, RefFrames : 4 frames
Codec ID : V_MPEG4/ISO/AVC
Duration : 51 min 27 s
Bit rate : 2 294 kb/s
Width : 1 920 pixels
Height : 1 080 pixels
Display aspect ratio : 16:9
Frame rate mode : Constant
Frame rate : 23.976 (24000/1001) FPS
Color space : YUV
Chroma subsampling : 4:2:0
Bit depth : 8 bits
Scan type : Progressive
Bits/(Pixel*Frame) : 0.046
Stream size : 845 MiB (90%)
Language : English
Default : Yes
Forced : No

Audio
ID : 2
Format : E-AC-3
Format/Info : Enhanced Audio Coding 3
Format settings, Endianness : Big
Codec ID : A_EAC3
Duration : 51 min 28 s
Bit rate mode : Constant
Bit rate : 256 kb/s
Channel(s) : 6 channels
Channel positions : Front: L C R, Side: L R, LFE
Sampling rate : 48.0 kHz
Frame rate : 187.500 FPS (256 SPF)
Compression mode : Lossy
Stream size : 94.2 MiB (10%)
Language : English
Service kind : Complete Main
Default : Yes
Forced : No

Text
ID : 3
Format : UTF-8
Codec ID : S_TEXT/UTF8
Codec ID/Info : UTF-8 Plain Text
Duration : 50 min 38 s
Bit rate : 44 b/s
Count of elements : 658
Stream size : 16.6 KiB (0%)
Title : English
Language : English
Default : No
Forced : No





Devs S01E06


Devs S01E06


Devs S01E06


Devs S01E06


Devs S01E06

All episodes