Index
# A B C D E F G H I J K L M N O P Q R S T U V W Y Z
Tags
Language
Tags

Featured TV Shows


Devs S01E07

Posted By: Tavaz
720p (HD) / WEBRip IMDb
Devs S01E07

Devs S01E07
WEBRip | MKV | 1280x640 | H264 @ 1641 kbps | E-AC-3 @ 256 kbps | 51 min 51 s | 704 MiB
Subtitles: English
Genre: Drama, Mystery


Young computer engineer Lily Chan investigates the secretive development division of her employer, a cutting-edge tech company based in San Francisco, which she believes is behind the murder of her boyfriend.

f35d7e0de48a48d48fe7d7c6e6d25cbc.mkv (704.4 MB)



General
Unique ID : 175512036322873442638701604497565285736 (0x840A637D9D0FB27E524D5CC726A9FD68)
Complete name : ./f35d7e0de48a48d48fe7d7c6e6d25cbc.mkv
Format : Matroska
Format version : Version 4 / Version 2
File size : 704 MiB
Duration : 51 min 51 s
Overall bit rate : 1 899 kb/s
Encoded date : UTC 2020-04-09 04:16:09
Writing application : mkvmerge v38.0.0 ('The Silent Type') 64-bit
Writing library : libebml v1.3.9 + libmatroska v1.5.2

Video
ID : 1
Format : AVC
Format/Info : Advanced Video Codec
Format profile : High@L4.1
Format settings : CABAC / 5 Ref Frames
Format settings, CABAC : Yes
Format settings, RefFrames : 5 frames
Codec ID : V_MPEG4/ISO/AVC
Duration : 51 min 51 s
Bit rate : 1 641 kb/s
Width : 1 280 pixels
Height : 640 pixels
Display aspect ratio : 2.000
Frame rate mode : Constant
Frame rate : 23.976 (24000/1001) FPS
Color space : YUV
Chroma subsampling : 4:2:0
Bit depth : 8 bits
Scan type : Progressive
Bits/(Pixel*Frame) : 0.084
Stream size : 609 MiB (86%)
Writing library : x264 core 158 r2988 7817004
Encoding settings : cabac=1 / ref=5 / deblock=1:-3:-3 / analyse=0x3:0x113 / me=umh / subme=8 / psy=1 / psy_rd=1.00:0.00 / mixed_ref=1 / me_range=16 / chroma_me=1 / trellis=2 / 8x8dct=1 / cqm=0 / deadzone=21,11 / fast_pskip=1 / chroma_qp_offset=-2 / threads=12 / lookahead_threads=2 / sliced_threads=0 / nr=0 / decimate=1 / interlaced=0 / bluray_compat=0 / constrained_intra=0 / bframes=3 / b_pyramid=2 / b_adapt=1 / b_bias=0 / direct=3 / weightb=1 / open_gop=0 / weightp=2 / keyint=250 / keyint_min=23 / scenecut=40 / intra_refresh=0 / rc_lookahead=50 / rc=crf / mbtree=1 / crf=18.0 / qcomp=0.60 / qpmin=0 / qpmax=69 / qpstep=4 / ip_ratio=1.40 / aq=1:1.00
Default : Yes
Forced : No

Audio
ID : 2
Format : E-AC-3
Format/Info : Enhanced Audio Coding 3
Format settings, Endianness : Big
Codec ID : A_EAC3
Duration : 51 min 51 s
Bit rate mode : Constant
Bit rate : 256 kb/s
Channel(s) : 6 channels
Channel positions : Front: L C R, Side: L R, LFE
Sampling rate : 48.0 kHz
Frame rate : 187.500 FPS (256 SPF)
Compression mode : Lossy
Delay relative to video : 6 ms
Stream size : 95.0 MiB (13%)
Service kind : Complete Main
Default : Yes
Forced : No

Text
ID : 3
Format : UTF-8
Codec ID : S_TEXT/UTF8
Codec ID/Info : UTF-8 Plain Text
Duration : 51 min 14 s
Bit rate : 38 b/s
Count of elements : 519
Stream size : 14.3 KiB (0%)
Language : English
Default : No
Forced : No





Devs S01E07


Devs S01E07


Devs S01E07


Devs S01E07


Devs S01E07

All episodes