Index
# A B C D E F G H I J K L M N O P Q R S T U V W Y Z
Tags
Language
Tags

Featured TV Shows


Devs S01E07

Posted By: Tavaz
1080p (FullHD) / WEBRip IMDb
Devs S01E07

Devs S01E07
WEBRip | MKV | 1920x1080 | English | H264 @ 3758 kbps | E-AC-3 @ 256 kbps | 52 min 1 s | 1.46 GiB
Subtitles: English
Genre: Drama, Mystery


Young computer engineer Lily Chan investigates the secretive development division of her employer, a cutting-edge tech company based in San Francisco, which she believes is behind the murder of her boyfriend.

1950ac885d3a4dd5bc07d4225c4fdaf9.mkv (1.5 GB)



General
Unique ID : 44055856596691866162027068143695673725 (0x2124D96EA477EC4776F4BFC20B3DB97D)
Complete name : ./1950ac885d3a4dd5bc07d4225c4fdaf9.mkv
Format : Matroska
Format version : Version 4 / Version 2
File size : 1.46 GiB
Duration : 52 min 1 s
Overall bit rate : 4 016 kb/s
Encoded date : UTC 2020-04-09 09:28:32
Writing application : mkvmerge v44.0.0 ('Domino') 64-bit
Writing library : libebml v1.3.10 + libmatroska v1.5.2

Video
ID : 1
Format : AVC
Format/Info : Advanced Video Codec
Format profile : High@L4
Format settings : CABAC / 4 Ref Frames
Format settings, CABAC : Yes
Format settings, RefFrames : 4 frames
Codec ID : V_MPEG4/ISO/AVC
Duration : 52 min 1 s
Bit rate : 3 758 kb/s
Width : 1 920 pixels
Height : 1 080 pixels
Display aspect ratio : 16:9
Frame rate mode : Constant
Frame rate : 23.976 (24000/1001) FPS
Color space : YUV
Chroma subsampling : 4:2:0
Bit depth : 8 bits
Scan type : Progressive
Bits/(Pixel*Frame) : 0.076
Stream size : 1.37 GiB (94%)
Language : English
Default : Yes
Forced : No

Audio
ID : 2
Format : E-AC-3
Format/Info : Enhanced Audio Coding 3
Format settings, Endianness : Big
Codec ID : A_EAC3
Duration : 52 min 1 s
Bit rate mode : Constant
Bit rate : 256 kb/s
Channel(s) : 6 channels
Channel positions : Front: L C R, Side: L R, LFE
Sampling rate : 48.0 kHz
Frame rate : 187.500 FPS (256 SPF)
Compression mode : Lossy
Stream size : 95.3 MiB (6%)
Language : English
Service kind : Complete Main
Default : Yes
Forced : No

Text
ID : 3
Format : UTF-8
Codec ID : S_TEXT/UTF8
Codec ID/Info : UTF-8 Plain Text
Duration : 51 min 14 s
Bit rate : 40 b/s
Count of elements : 519
Stream size : 15.1 KiB (0%)
Title : English
Language : English
Default : No
Forced : No





Devs S01E07


Devs S01E07


Devs S01E07


Devs S01E07


Devs S01E07

All episodes