Featured TV Shows


Doctor Who S01E10

Posted By: Tavaz
1080p (FullHD) / WEB-DL IMDb
Doctor Who S01E10

Doctor Who S01E10
WEB-DL | MKV | 1920x960 | Italian | H264 @ 3514 kbps | AC-3 @ 192 kbps | 49 min 44 s | 1.29 GiB
Genre: Drama

The Doctor is a Time Lord: a 900 year old alien with 2 hearts, part of a gifted civilization who mastered time travel. The Doctor saves planets for a living – more of a hobby actually, and the Doctor's very, very good at it.

Doctor.Who.11x10.La.Battaglia.Di.Ranskoor.Av.Kolos.ITA.1080p.WEBMux.x264-NovaRip.mkv (1.3 GB)



General
Unique ID : 44833883738780975957867036622644047209 (0x21BAB121C5A01305BCD36C4AAC27ED69)
Complete name : ./Doctor.Who.11x10.La.Battaglia.Di.Ranskoor.Av.Kolos.ITA.1080p.WEBMux.x264-NovaRip.mkv
Format : Matroska
Format version : Version 2
File size : 1.29 GiB
Duration : 49 min 44 s
Overall bit rate : 3 708 kb/s
Encoded date : UTC 2019-02-27 17:02:43
Writing application : mkvmerge v8.5.2 ('Crosses') 64bit
Writing library : libebml v1.3.3 + libmatroska v1.4.4

Video
ID : 1
Format : AVC
Format/Info : Advanced Video Codec
Format profile : High@L4.1
Format settings : CABAC / 4 Ref Frames
Format settings, CABAC : Yes
Format settings, RefFrames : 4 frames
Codec ID : V_MPEG4/ISO/AVC
Duration : 49 min 44 s
Bit rate : 3 515 kb/s
Width : 1 920 pixels
Height : 960 pixels
Display aspect ratio : 2.000
Frame rate mode : Constant
Frame rate : 25.000 FPS
Color space : YUV
Chroma subsampling : 4:2:0
Bit depth : 8 bits
Scan type : Progressive
Bits/(Pixel*Frame) : 0.076
Stream size : 1.22 GiB (95%)
Writing library : x264 core 155 r2893 b00bcaf
Encoding settings : cabac=1 / ref=4 / deblock=1:-2:-2 / analyse=0x3:0x133 / me=umh / subme=7 / psy=1 / psy_rd=1.00:0.00 / mixed_ref=1 / me_range=16 / chroma_me=1 / trellis=2 / 8x8dct=1 / cqm=0 / deadzone=21,11 / fast_pskip=0 / chroma_qp_offset=-2 / threads=6 / lookahead_threads=1 / sliced_threads=0 / nr=0 / decimate=1 / interlaced=0 / bluray_compat=0 / constrained_intra=0 / bframes=5 / b_pyramid=2 / b_adapt=2 / b_bias=0 / direct=3 / weightb=1 / open_gop=0 / weightp=2 / keyint=250 / keyint_min=25 / scenecut=40 / intra_refresh=0 / rc_lookahead=40 / rc=crf / mbtree=1 / crf=20.0 / qcomp=0.60 / qpmin=0 / qpmax=69 / qpstep=4 / ip_ratio=1.40 / aq=1:1.00
Language : English
Default : Yes
Forced : Yes

Audio
ID : 2
Format : AC-3
Format/Info : Audio Coding 3
Format settings, Endianness : Big
Codec ID : A_AC3
Duration : 49 min 44 s
Bit rate mode : Constant
Bit rate : 192 kb/s
Channel(s) : 2 channels
Channel positions : Front: L R
Sampling rate : 48.0 kHz
Frame rate : 31.250 FPS (1536 SPF)
Bit depth : 16 bits
Compression mode : Lossy
Stream size : 68.3 MiB (5%)
Title : ITA
Language : Italian
Service kind : Complete Main
Default : Yes
Forced : Yes





Doctor Who S01E10


Doctor Who S01E10


Doctor Who S01E10


Doctor Who S01E10


Doctor Who S01E10

All episodes