Featured TV Shows


Endeavour S05E02

Posted By: Tavaz
720p (HD) / WEB-DL IMDb
Endeavour S05E02

Endeavour S05E02
WEB-DL | MKV | 1280x720 | English | H264 @ 1147 kbps | E-AC-3 @ 640 kbps | 1 h 29 min | 1.12 GiB
Subtitles: English
Genre: Crime, Drama, Mystery

The early days of a young Endeavour Morse, whose experiences as a detective constable with the Oxford City Police will ultimately shape his future.

06d1d06f6f07471d820ff20d793c609d.mkv (1.1 GB)



General
Unique ID : 56571770274263837665317265518417914248 (0x2A8F539E8942B94247A926A0C7ABA988)
Complete name : ./06d1d06f6f07471d820ff20d793c609d.mkv
Format : Matroska
Format version : Version 4 / Version 2
File size : 1.12 GiB
Duration : 1 h 29 min
Overall bit rate : 1 789 kb/s
Encoded date : UTC 2019-01-30 00:10:12
Writing application : mkvmerge v25.0.0 ('Prog Noir') 32-bit
Writing library : libebml v1.3.6 + libmatroska v1.4.9

Video
ID : 1
Format : AVC
Format/Info : Advanced Video Codec
Format profile : High@L3.1
Format settings : CABAC / 5 Ref Frames
Format settings, CABAC : Yes
Format settings, RefFrames : 5 frames
Codec ID : V_MPEG4/ISO/AVC
Duration : 1 h 29 min
Bit rate : 1 147 kb/s
Width : 1 280 pixels
Height : 720 pixels
Display aspect ratio : 16:9
Frame rate mode : Constant
Frame rate : 25.000 FPS
Color space : YUV
Chroma subsampling : 4:2:0
Bit depth : 8 bits
Scan type : Progressive
Bits/(Pixel*Frame) : 0.050
Stream size : 735 MiB (64%)
Default : Yes
Forced : No
Color range : Limited
Color primaries : BT.709
Transfer characteristics : BT.709
Matrix coefficients : BT.709

Audio
ID : 2
Format : E-AC-3
Format/Info : Enhanced Audio Coding 3
Format settings, Endianness : Big
Codec ID : A_EAC3
Duration : 1 h 29 min
Bit rate mode : Constant
Bit rate : 640 kb/s
Channel(s) : 6 channels
Channel positions : Front: L C R, Side: L R, LFE
Sampling rate : 48.0 kHz
Frame rate : 187.500 FPS (256 SPF)
Compression mode : Lossy
Stream size : 410 MiB (36%)
Title : English
Language : English
Service kind : Complete Main
Default : Yes
Forced : No

Text
ID : 3
Format : UTF-8
Codec ID : S_TEXT/UTF8
Codec ID/Info : UTF-8 Plain Text
Duration : 1 h 28 min
Bit rate : 87 b/s
Count of elements : 2079
Stream size : 56.9 KiB (0%)
Title : English [SDH]
Language : English
Default : No
Forced : No





Endeavour S05E02


Endeavour S05E02


Endeavour S05E02


Endeavour S05E02


Endeavour S05E02

All episodes