Featured TV Shows


Endeavour S06E01

Posted By: Tavaz
1080p (FullHD) / HDTV IMDb
Endeavour S06E01

Endeavour S06E01
HDTV | MKV | 1920x1080 | English | H264 @ 5852 kbps | AC-3 @ 192 kbps | 1 h 29 min | 3.83 GiB
Genre: Crime, Drama, Mystery

The early days of a young Endeavour Morse, whose experiences as a detective constable with the Oxford City Police will ultimately shape his future.

28b8fa24738943c9889468e3c0316c2f.mkv (3.8 GB)



General
Unique ID : 0 (0x0)
Complete name : ./28b8fa24738943c9889468e3c0316c2f.mkv
Format : Matroska
Format version : Version 4 / Version 2
File size : 3.83 GiB
Duration : 1 h 29 min
Overall bit rate : 6 167 kb/s
Encoded date : UTC 2010-02-22 21:41:29
Writing application : no_variable_data
Writing library : no_variable_data

Video
ID : 1
Format : AVC
Format/Info : Advanced Video Codec
Format profile : Main@L4
Format settings : CABAC / 4 Ref Frames
Format settings, CABAC : Yes
Format settings, RefFrames : 4 frames
Format settings, GOP : M=4, N=33
Codec ID : V_MPEG4/ISO/AVC
Duration : 1 h 29 min
Bit rate : 5 853 kb/s
Width : 1 920 pixels
Height : 1 080 pixels
Display aspect ratio : 16:9
Frame rate mode : Constant
Frame rate : 25.000 FPS
Standard : Component
Color space : YUV
Chroma subsampling : 4:2:0
Bit depth : 8 bits
Scan type : MBAFF
Scan type, store method : Interleaved fields
Scan order : Top Field First
Bits/(Pixel*Frame) : 0.113
Stream size : 3.64 GiB (95%)
Language : English
Default : Yes
Forced : No
Color range : Limited
Color primaries : BT.709
Transfer characteristics : BT.709
Matrix coefficients : BT.709

Audio
ID : 2
Format : AC-3
Format/Info : Audio Coding 3
Format settings, Endianness : Big
Codec ID : A_AC3
Duration : 1 h 29 min
Bit rate mode : Constant
Bit rate : 192 kb/s
Channel(s) : 2 channels
Channel positions : Front: L R
Sampling rate : 48.0 kHz
Frame rate : 31.250 FPS (1536 SPF)
Bit depth : 16 bits
Compression mode : Lossy
Stream size : 122 MiB (3%)
Language : English
Service kind : Complete Main
Default : Yes
Forced : No





Endeavour S06E01


Endeavour S06E01


Endeavour S06E01


Endeavour S06E01


Endeavour S06E01

All episodes