Featured TV Shows


Endeavour S06E01

Posted By: Tavaz
SD / WEB-DL IMDb
Endeavour S06E01

Endeavour S06E01
WEB-DL | MKV | 896x504 | English | H264 @ 1354 kbps | AAC @ 96 kbps | 1 h 30 min | 936 MiB
Genre: Crime, Drama, Mystery

The early days of a young Endeavour Morse, whose experiences as a detective constable with the Oxford City Police will ultimately shape his future.

0fa7b668faaf41eb9f12e0e650f70e05.mkv (935.6 MB)



General
Unique ID : 175324615326425979430955637787587301678 (0x83E64AEC1018FC5D651F8F5E2FECD12E)
Complete name : ./0fa7b668faaf41eb9f12e0e650f70e05.mkv
Format : Matroska
Format version : Version 4 / Version 2
File size : 936 MiB
Duration : 1 h 30 min
Overall bit rate : 1 453 kb/s
Encoded date : UTC 2019-02-11 08:09:45
Writing application : mkvmerge v29.0.0 ('Like It Or Not') 64-bit
Writing library : libebml v1.3.6 + libmatroska v1.4.9

Video
ID : 2
Format : AVC
Format/Info : Advanced Video Codec
Format profile : High@L3.1
Format settings : CABAC / 6 Ref Frames
Format settings, CABAC : Yes
Format settings, RefFrames : 6 frames
Codec ID : V_MPEG4/ISO/AVC
Duration : 1 h 30 min
Bit rate : 1 354 kb/s
Nominal bit rate : 1 704 kb/s
Width : 896 pixels
Height : 504 pixels
Display aspect ratio : 16:9
Frame rate mode : Constant
Frame rate : 25.000 FPS
Color space : YUV
Chroma subsampling : 4:2:0
Bit depth : 8 bits
Scan type : Progressive
Bits/(Pixel*Frame) : 0.120
Stream size : 872 MiB (93%)
Writing library : x264 core 138
Encoding settings : cabac=1 / ref=6 / deblock=1:-1:-1 / analyse=0x3:0x113 / me=umh / subme=8 / psy=1 / psy_rd=0.60:1.00 / mixed_ref=1 / me_range=16 / chroma_me=1 / trellis=2 / 8x8dct=1 / cqm=0 / deadzone=21,11 / fast_pskip=1 / chroma_qp_offset=-4 / threads=8 / lookahead_threads=1 / sliced_threads=0 / nr=0 / decimate=1 / interlaced=0 / bluray_compat=0 / constrained_intra=0 / bframes=3 / b_pyramid=0 / b_adapt=2 / b_bias=0 / direct=3 / weightb=1 / open_gop=0 / weightp=2 / keyint=150 / keyint_min=15 / scenecut=0 / intra_refresh=0 / rc_lookahead=60 / rc=cbr / mbtree=1 / bitrate=1704 / ratetol=1.0 / qcomp=0.60 / qpmin=0 / qpmax=69 / qpstep=4 / vbv_maxrate=1704 / vbv_bufsize=1278 / nal_hrd=none / filler=0 / ip_ratio=1.40 / aq=1:1.40
Default : Yes
Forced : No

Audio
ID : 1
Format : AAC
Format/Info : Advanced Audio Codec
Format profile : LC
Codec ID : A_AAC-2
Duration : 1 h 30 min
Bit rate : 96.0 kb/s
Channel(s) : 2 channels
Channel positions : Front: L R
Sampling rate : 48.0 kHz
Frame rate : 46.875 FPS (1024 SPF)
Compression mode : Lossy
Stream size : 61.9 MiB (7%)
Default : Yes
Forced : No

Text
ID : 3
Format : UTF-8
Codec ID : S_TEXT/UTF8
Codec ID/Info : UTF-8 Plain Text
Duration : 1 h 29 min
Bit rate : 54 b/s
Count of elements : 1017
Stream size : 35.5 KiB (0%)
Default : Yes
Forced : No





Endeavour S06E01


Endeavour S06E01


Endeavour S06E01


Endeavour S06E01


Endeavour S06E01

All episodes