Index
# A B C D E F G H I J K L M N O P Q R S T U V W Y Z
Tags
Language
Tags

Featured TV Shows


Living the Dream S04E11

Posted By: Tavaz
720p (HD) / HDTV IMDb
Living the Dream S04E11

Living the Dream S04E11
HDTV | MKV | 1280x720 | H264 @ 3284 kbps | AC-3 @ 384 kbps | 42 min 59 s | 1.12 GiB
Genre: Drama, Comedy


A British family, the Pembertons, decide it’s time to leave rainy England and move to the sunshine state of Florida. They've bought an RV Park with plans for a booming family-run business, but it soon turns out that they are not going to be living the dream they hoped.

16498dc8efd0ee0579fe43d0230a2e64.mkv (1.1 GB)



General
Unique ID : 238529229187272740864260558493610323189 (0xB3730EFA8891CB1C9C7BDAEC06DAACF5)
Complete name : ./16498dc8efd0ee0579fe43d0230a2e64.mkv
Format : Matroska
Format version : Version 2
File size : 1.12 GiB
Duration : 42 min 59 s
Overall bit rate : 3 743 kb/s
Encoded date : UTC 2013-03-27 04:21:12
Writing application : mkvmerge v4.8.0 ('SALVATION') built on May 24 2011 03:12:58
Writing library : libebml v1.2.0 + libmatroska v1.1.0

Video
ID : 1
Format : AVC
Format/Info : Advanced Video Codec
Format profile : High@L4.1
Format settings : CABAC / 5 Ref Frames
Format settings, CABAC : Yes
Format settings, RefFrames : 5 frames
Codec ID : V_MPEG4/ISO/AVC
Duration : 42 min 59 s
Bit rate : 3 285 kb/s
Width : 1 280 pixels
Height : 720 pixels
Display aspect ratio : 16:9
Frame rate mode : Constant
Frame rate : 23.976 (24000/1001) FPS
Color space : YUV
Chroma subsampling : 4:2:0
Bit depth : 8 bits
Scan type : Progressive
Bits/(Pixel*Frame) : 0.149
Stream size : 1 010 MiB (88%)
Writing library : x264 core 130 r2273 b3065e6
Encoding settings : cabac=1 / ref=5 / deblock=1:0:0 / analyse=0x3:0x113 / me=umh / subme=8 / psy=1 / psy_rd=1.00:0.00 / mixed_ref=1 / me_range=16 / chroma_me=1 / trellis=1 / 8x8dct=1 / cqm=0 / deadzone=21,11 / fast_pskip=1 / chroma_qp_offset=-2 / threads=6 / lookahead_threads=1 / sliced_threads=0 / nr=0 / decimate=1 / interlaced=0 / bluray_compat=0 / constrained_intra=0 / bframes=3 / b_pyramid=2 / b_adapt=2 / b_bias=0 / direct=3 / weightb=1 / open_gop=0 / weightp=2 / keyint=250 / keyint_min=23 / scenecut=40 / intra_refresh=0 / rc_lookahead=50 / rc=crf / mbtree=1 / crf=20.0 / qcomp=0.60 / qpmin=0 / qpmax=69 / qpstep=4 / ip_ratio=1.40 / aq=1:1.00
Default : Yes
Forced : No

Audio
ID : 2
Format : AC-3
Format/Info : Audio Coding 3
Format settings, Endianness : Big
Codec ID : A_AC3
Duration : 42 min 59 s
Bit rate mode : Constant
Bit rate : 384 kb/s
Channel(s) : 6 channels
Channel positions : Front: L C R, Side: L R, LFE
Sampling rate : 48.0 kHz
Frame rate : 31.250 FPS (1536 SPF)
Bit depth : 16 bits
Compression mode : Lossy
Stream size : 118 MiB (10%)
Service kind : Complete Main
Default : Yes
Forced : No





Living the Dream S04E11


Living the Dream S04E11


Living the Dream S04E11


Living the Dream S04E11


Living the Dream S04E11

All episodes