Index
# A B C D E F G H I J K L M N O P Q R S T U V W X Y Z
Tags
Language
Tags
July 2024
Su Mo Tu We Th Fr Sa
30 1 2 3 4 5 6
7 8 9 10 11 12 13
14 15 16 17 18 19 20
21 22 23 24 25 26 27
28 29 30 31 1 2 3

Featured TV Shows


Fallout S01E01

Posted By: Tavaz
1080p (FullHD) / WEBRip IMDb
Fallout S01E01

Fallout S01E01
WEB-DL | MKV | 1920x1080 | English / Deutsch | H264 @ 8279 kbps | E-AC-3 @ 640.0 kbps | 1 h 14 min | 5.01 GiB
Subtitles: Italiano, Nederlands, Deutsch, Español, English, Bahasa Indonesia, Čeština, Svenska, Ελληνικά, Dansk, 한국어, 日本語, Română, العربية, 中文, Українська, עברית, Português, Polski, Русский, ภาษาไทย, tiếng Việt, Français, Magyar, हिन्दी, Türkçe, Suomi
Genre: Comedy


The story of haves and have-nots in a world in which there’s almost nothing left to have. 200 years after the apocalypse, the gentle denizens of luxury fallout shelters are forced to return to the irradiated hellscape their ancestors left behind — and are shocked to discover an incredibly complex, gleefully weird, and highly violent universe waiting for them.

fallout.s01e01.german.dl.1080p.web.h264-wayne.mkv (5.0 GB)



General
Unique ID : 162348855446820005076861440635651258841 (0x7A2340911C2783EAA47BEC3C59E479D9)
Complete name : ./fallout.s01e01.german.dl.1080p.web.h264-wayne.mkv
Format : Matroska
Format version : Version 4
File size : 5.01 GiB
Duration : 1 h 14 min
Overall bit rate : 9 564 kb/s
Encoded date : UTC 2024-04-11 01:02:46
Writing application : mkvmerge v75.0.0 ('Goliath') 64-bit
Writing library : libebml v1.4.4 + libmatroska v1.7.1

Video
ID : 1
Format : AVC
Format/Info : Advanced Video Codec
Format profile : High@L4
Format settings : CABAC / 4 Ref Frames
Format settings, CABAC : Yes
Format settings, Reference frames : 4 frames
Codec ID : V_MPEG4/ISO/AVC
Duration : 1 h 14 min
Bit rate mode : Constant
Bit rate : 8 279 kb/s
Nominal bit rate : 10 000 kb/s
Width : 1 920 pixels
Height : 1 080 pixels
Display aspect ratio : 16:9
Frame rate mode : Constant
Frame rate : 24.000 FPS
Color space : YUV
Chroma subsampling : 4:2:0
Bit depth : 8 bits
Scan type : Progressive
Bits/(Pixel*Frame) : 0.166
Stream size : 4.33 GiB (87%)
Default : Yes
Forced : No
Color range : Limited
Color primaries : BT.709
Transfer characteristics : BT.709
Matrix coefficients : BT.709

Audio #1
ID : 2
Format : E-AC-3
Format/Info : Enhanced AC-3
Commercial name : Dolby Digital Plus
Codec ID : A_EAC3
Duration : 1 h 14 min
Bit rate mode : Constant
Bit rate : 640 kb/s
Channel(s) : 6 channels
Channel layout : L R C LFE Ls Rs
Sampling rate : 48.0 kHz
Frame rate : 31.250 FPS (1536 SPF)
Compression mode : Lossy
Stream size : 343 MiB (7%)
Language : German
Service kind : Complete Main
Default : Yes
Forced : No

Audio #2
ID : 3
Format : E-AC-3
Format/Info : Enhanced AC-3
Commercial name : Dolby Digital Plus
Codec ID : A_EAC3
Duration : 1 h 14 min
Bit rate mode : Constant
Bit rate : 640 kb/s
Channel(s) : 6 channels
Channel layout : L R C LFE Ls Rs
Sampling rate : 48.0 kHz
Frame rate : 31.250 FPS (1536 SPF)
Compression mode : Lossy
Stream size : 343 MiB (7%)
Language : English
Service kind : Complete Main
Default : No
Forced : No

Text #1
ID : 4
Format : UTF-8
Codec ID : S_TEXT/UTF8
Codec ID/Info : UTF-8 Plain Text
Duration : 1 h 7 min
Bit rate : 0 b/s
Frame rate : 0.005 FPS
Count of elements : 20
Stream size : 436 Bytes (0%)
Title : German forced narrative
Language : German
Default : Yes
Forced : Yes

Text #2
ID : 5
Format : UTF-8
Codec ID : S_TEXT/UTF8
Codec ID/Info : UTF-8 Plain Text
Duration : 1 h 11 min
Bit rate : 28 b/s
Frame rate : 0.116 FPS
Count of elements : 493
Stream size : 14.8 KiB (0%)
Title : Malay (Malaysia)
Language : Malay
Default : No
Forced : No

Text #3
ID : 6
Format : UTF-8
Codec ID : S_TEXT/UTF8
Codec ID/Info : UTF-8 Plain Text
Duration : 1 h 11 min
Bit rate : 25 b/s
Frame rate : 0.116 FPS
Count of elements : 495
Stream size : 13.1 KiB (0%)
Title : Catalan (Spain)
Default : No
Forced : No

Text #4
ID : 7
Format : UTF-8
Codec ID : S_TEXT/UTF8
Codec ID/Info : UTF-8 Plain Text
Duration : 1 h 11 min
Bit rate : 25 b/s
Frame rate : 0.117 FPS
Count of elements : 497
Stream size : 13.4 KiB (0%)
Title : Danish (Denmark)
Language : Danish
Default : No
Forced : No

Text #5
ID : 8
Format : UTF-8
Codec ID : S_TEXT/UTF8
Codec ID/Info : UTF-8 Plain Text
Duration : 1 h 11 min
Bit rate : 27 b/s
Frame rate : 0.116 FPS
Count of elements : 496
Stream size : 14.1 KiB (0%)
Title : German (Germany)
Language : German
Default : No
Forced : No

Text #6
ID : 9
Format : UTF-8
Codec ID : S_TEXT/UTF8
Codec ID/Info : UTF-8 Plain Text
Duration : 1 h 10 min
Bit rate : 46 b/s
Frame rate : 0.223 FPS
Count of elements : 947
Stream size : 24.1 KiB (0%)
Title : English (United States)
Language : English
Default : No
Forced : No

Text #7
ID : 10
Format : UTF-8
Codec ID : S_TEXT/UTF8
Codec ID/Info : UTF-8 Plain Text
Duration : 1 h 11 min
Bit rate : 28 b/s
Frame rate : 0.111 FPS
Count of elements : 472
Stream size : 14.7 KiB (0%)
Title : Spanish (Spain)
Language : Spanish
Default : No
Forced : No

Text #8
ID : 11
Format : UTF-8
Codec ID : S_TEXT/UTF8
Codec ID/Info : UTF-8 Plain Text
Duration : 1 h 11 min
Bit rate : 27 b/s
Frame rate : 0.116 FPS
Count of elements : 496
Stream size : 14.2 KiB (0%)
Title : Spanish (Latin America)
Language : Spanish
Default : No
Forced : No

Text #9
ID : 12
Format : UTF-8
Codec ID : S_TEXT/UTF8
Codec ID/Info : UTF-8 Plain Text
Duration : 1 h 11 min
Bit rate : 24 b/s
Frame rate : 0.116 FPS
Count of elements : 496
Stream size : 13.0 KiB (0%)
Title : Basque (Spain)
Default : No
Forced : No

Text #10
ID : 13
Format : UTF-8
Codec ID : S_TEXT/UTF8
Codec ID/Info : UTF-8 Plain Text
Duration : 1 h 10 min
Bit rate : 29 b/s
Frame rate : 0.116 FPS
Count of elements : 489
Stream size : 15.4 KiB (0%)
Title : Filipino (Philippines)
Language : fil
Default : No
Forced : No

Text #11
ID : 14
Format : UTF-8
Codec ID : S_TEXT/UTF8
Codec ID/Info : UTF-8 Plain Text
Duration : 1 h 11 min
Bit rate : 29 b/s
Frame rate : 0.116 FPS
Count of elements : 493
Stream size : 15.3 KiB (0%)
Title : French (Canada)
Language : French
Default : No
Forced : No

Text #12
ID : 15
Format : UTF-8
Codec ID : S_TEXT/UTF8
Codec ID/Info : UTF-8 Plain Text
Duration : 1 h 11 min
Bit rate : 26 b/s
Frame rate : 0.119 FPS
Count of elements : 508
Stream size : 13.8 KiB (0%)
Title : French (France)
Language : French
Default : No
Forced : No

Text #13
ID : 16
Format : UTF-8
Codec ID : S_TEXT/UTF8
Codec ID/Info : UTF-8 Plain Text
Duration : 1 h 11 min
Bit rate : 25 b/s
Frame rate : 0.116 FPS
Count of elements : 496
Stream size : 13.4 KiB (0%)
Title : Galician (Spain)
Default : No
Forced : No

Text #14
ID : 17
Format : UTF-8
Codec ID : S_TEXT/UTF8
Codec ID/Info : UTF-8 Plain Text
Duration : 1 h 11 min
Bit rate : 26 b/s
Frame rate : 0.116 FPS
Count of elements : 493
Stream size : 13.7 KiB (0%)
Title : Indonesian (Indonesia)
Language : Indonesian
Default : No
Forced : No

Text #15
ID : 18
Format : UTF-8
Codec ID : S_TEXT/UTF8
Codec ID/Info : UTF-8 Plain Text
Duration : 1 h 11 min
Bit rate : 27 b/s
Frame rate : 0.114 FPS
Count of elements : 485
Stream size : 14.3 KiB (0%)
Title : Italian (Italy)
Language : Italian
Default : No
Forced : No

Text #16
ID : 19
Format : UTF-8
Codec ID : S_TEXT/UTF8
Codec ID/Info : UTF-8 Plain Text
Duration : 1 h 11 min
Bit rate : 28 b/s
Frame rate : 0.116 FPS
Count of elements : 494
Stream size : 14.7 KiB (0%)
Title : Hungarian (Hungary)
Language : Hungarian
Default : No
Forced : No

Text #17
ID : 20
Format : UTF-8
Codec ID : S_TEXT/UTF8
Codec ID/Info : UTF-8 Plain Text
Duration : 1 h 11 min
Bit rate : 25 b/s
Frame rate : 0.113 FPS
Count of elements : 480
Stream size : 13.2 KiB (0%)
Title : Dutch (Netherlands)
Language : Dutch
Default : No
Forced : No

Text #18
ID : 21
Format : UTF-8
Codec ID : S_TEXT/UTF8
Codec ID/Info : UTF-8 Plain Text
Duration : 1 h 11 min
Bit rate : 25 b/s
Frame rate : 0.116 FPS
Count of elements : 495
Stream size : 13.3 KiB (0%)
Title : Norwegian Bokmål (Norway)
Language : Norwegian
Default : No
Forced : No

Text #19
ID : 22
Format : UTF-8
Codec ID : S_TEXT/UTF8
Codec ID/Info : UTF-8 Plain Text
Duration : 1 h 11 min
Bit rate : 23 b/s
Frame rate : 0.115 FPS
Count of elements : 492
Stream size : 12.2 KiB (0%)
Title : Polish (Poland)
Language : Polish
Default : No
Forced : No

Text #20
ID : 23
Format : UTF-8
Codec ID : S_TEXT/UTF8
Codec ID/Info : UTF-8 Plain Text
Duration : 1 h 11 min
Bit rate : 26 b/s
Frame rate : 0.116 FPS
Count of elements : 496
Stream size : 13.6 KiB (0%)
Title : Portuguese (Brazil)
Language : Portuguese
Default : No
Forced : No

Text #21
ID : 24
Format : UTF-8
Codec ID : S_TEXT/UTF8
Codec ID/Info : UTF-8 Plain Text
Duration : 1 h 11 min
Bit rate : 26 b/s
Frame rate : 0.116 FPS
Count of elements : 496
Stream size : 13.7 KiB (0%)
Title : Portuguese (Portugal)
Language : Portuguese
Default : No
Forced : No

Text #22
ID : 25
Format : UTF-8
Codec ID : S_TEXT/UTF8
Codec ID/Info : UTF-8 Plain Text
Duration : 1 h 11 min
Bit rate : 30 b/s
Frame rate : 0.116 FPS
Count of elements : 495
Stream size : 15.8 KiB (0%)
Title : Romanian (Romania)
Language : Romanian
Default : No
Forced : No

Text #23
ID : 26
Format : UTF-8
Codec ID : S_TEXT/UTF8
Codec ID/Info : UTF-8 Plain Text
Duration : 1 h 11 min
Bit rate : 26 b/s
Frame rate : 0.116 FPS
Count of elements : 493
Stream size : 13.9 KiB (0%)
Title : Finnish (Finland)
Language : Finnish
Default : No
Forced : No

Text #24
ID : 27
Format : UTF-8
Codec ID : S_TEXT/UTF8
Codec ID/Info : UTF-8 Plain Text
Duration : 1 h 11 min
Bit rate : 27 b/s
Frame rate : 0.116 FPS
Count of elements : 496
Stream size : 14.3 KiB (0%)
Title : Swedish (Sweden)
Language : Swedish
Default : No
Forced : No

Text #25
ID : 28
Format : UTF-8
Codec ID : S_TEXT/UTF8
Codec ID/Info : UTF-8 Plain Text
Duration : 1 h 11 min
Bit rate : 36 b/s
Frame rate : 0.117 FPS
Count of elements : 498
Stream size : 19.0 KiB (0%)
Title : Vietnamese (Vietnam)
Language : Vietnamese
Default : No
Forced : No

Text #26
ID : 29
Format : UTF-8
Codec ID : S_TEXT/UTF8
Codec ID/Info : UTF-8 Plain Text
Duration : 1 h 11 min
Bit rate : 28 b/s
Frame rate : 0.116 FPS
Count of elements : 496
Stream size : 14.7 KiB (0%)
Title : Turkish (Turkey)
Language : Turkish
Default : No
Forced : No

Text #27
ID : 30
Format : UTF-8
Codec ID : S_TEXT/UTF8
Codec ID/Info : UTF-8 Plain Text
Duration : 1 h 11 min
Bit rate : 28 b/s
Frame rate : 0.116 FPS
Count of elements : 494
Stream size : 14.8 KiB (0%)
Title : Czech (Czechia)
Language : Czech
Default : No
Forced : No

Text #28
ID : 31
Format : UTF-8
Codec ID : S_TEXT/UTF8
Codec ID/Info : UTF-8 Plain Text
Duration : 1 h 11 min
Bit rate : 51 b/s
Frame rate : 0.117 FPS
Count of elements : 498
Stream size : 26.7 KiB (0%)
Title : Greek (Greece)
Language : Greek
Default : No
Forced : No

Text #29
ID : 32
Format : UTF-8
Codec ID : S_TEXT/UTF8
Codec ID/Info : UTF-8 Plain Text
Duration : 1 h 11 min
Bit rate : 46 b/s
Frame rate : 0.117 FPS
Count of elements : 500
Stream size : 24.2 KiB (0%)
Title : Russian (Russia)
Language : Russian
Default : No
Forced : No

Text #30
ID : 33
Format : UTF-8
Codec ID : S_TEXT/UTF8
Codec ID/Info : UTF-8 Plain Text
Duration : 1 h 11 min
Bit rate : 45 b/s
Frame rate : 0.118 FPS
Count of elements : 502
Stream size : 23.4 KiB (0%)
Title : Ukrainian (Ukraine)
Language : Ukrainian
Default : No
Forced : No

Text #31
ID : 34
Format : UTF-8
Codec ID : S_TEXT/UTF8
Codec ID/Info : UTF-8 Plain Text
Duration : 1 h 11 min
Bit rate : 44 b/s
Frame rate : 0.118 FPS
Count of elements : 503
Stream size : 23.0 KiB (0%)
Title : Hebrew (Israel)
Language : Hebrew
Default : No
Forced : No

Text #32
ID : 35
Format : UTF-8
Codec ID : S_TEXT/UTF8
Codec ID/Info : UTF-8 Plain Text
Duration : 1 h 11 min
Bit rate : 47 b/s
Frame rate : 0.118 FPS
Count of elements : 501
Stream size : 24.6 KiB (0%)
Title : Arabic (world)
Language : Arabic
Default : No
Forced : No

Text #33
ID : 36
Format : UTF-8
Codec ID : S_TEXT/UTF8
Codec ID/Info : UTF-8 Plain Text
Duration : 1 h 11 min
Bit rate : 62 b/s
Frame rate : 0.118 FPS
Count of elements : 503
Stream size : 32.6 KiB (0%)
Title : Hindi (India)
Language : Hindi
Default : No
Forced : No

Text #34
ID : 37
Format : UTF-8
Codec ID : S_TEXT/UTF8
Codec ID/Info : UTF-8 Plain Text
Duration : 1 h 11 min
Bit rate : 79 b/s
Frame rate : 0.118 FPS
Count of elements : 504
Stream size : 41.2 KiB (0%)
Title : Tamil (India)
Language : Tamil
Default : No
Forced : No

Text #35
ID : 38
Format : UTF-8
Codec ID : S_TEXT/UTF8
Codec ID/Info : UTF-8 Plain Text
Duration : 1 h 11 min
Bit rate : 71 b/s
Frame rate : 0.118 FPS
Count of elements : 503
Stream size : 37.2 KiB (0%)
Title : Telugu (India)
Language : Telugu
Default : No
Forced : No

Text #36
ID : 39
Format : UTF-8
Codec ID : S_TEXT/UTF8
Codec ID/Info : UTF-8 Plain Text
Duration : 1 h 11 min
Bit rate : 70 b/s
Frame rate : 0.118 FPS
Count of elements : 503
Stream size : 36.9 KiB (0%)
Title : Kannada (India)
Language : Kannada
Default : No
Forced : No

Text #37
ID : 40
Format : UTF-8
Codec ID : S_TEXT/UTF8
Codec ID/Info : UTF-8 Plain Text
Duration : 1 h 11 min
Bit rate : 85 b/s
Frame rate : 0.117 FPS
Count of elements : 498
Stream size : 44.3 KiB (0%)
Title : Malayalam (India)
Language : Malayalam
Default : No
Forced : No

Text #38
ID : 41
Format : UTF-8
Codec ID : S_TEXT/UTF8
Codec ID/Info : UTF-8 Plain Text
Duration : 1 h 11 min
Bit rate : 72 b/s
Frame rate : 0.118 FPS
Count of elements : 503
Stream size : 37.8 KiB (0%)
Title : Thai (Thailand)
Language : Thai
Default : No
Forced : No

Text #39
ID : 42
Format : UTF-8
Codec ID : S_TEXT/UTF8
Codec ID/Info : UTF-8 Plain Text
Duration : 1 h 11 min
Bit rate : 27 b/s
Frame rate : 0.118 FPS
Count of elements : 503
Stream size : 14.2 KiB (0%)
Title : Chinese (Simplified)
Language : Chinese
Default : No
Forced : No

Text #40
ID : 43
Format : UTF-8
Codec ID : S_TEXT/UTF8
Codec ID/Info : UTF-8 Plain Text
Duration : 1 h 11 min
Bit rate : 25 b/s
Frame rate : 0.118 FPS
Count of elements : 502
Stream size : 13.5 KiB (0%)
Title : Chinese (Traditional)
Language : Chinese
Default : No
Forced : No

Text #41
ID : 44
Format : UTF-8
Codec ID : S_TEXT/UTF8
Codec ID/Info : UTF-8 Plain Text
Duration : 1 h 11 min
Bit rate : 27 b/s
Frame rate : 0.116 FPS
Count of elements : 495
Stream size : 14.3 KiB (0%)
Title : Japanese (Japan)
Language : Japanese
Default : No
Forced : No

Text #42
ID : 45
Format : UTF-8
Codec ID : S_TEXT/UTF8
Codec ID/Info : UTF-8 Plain Text
Duration : 1 h 11 min
Bit rate : 30 b/s
Frame rate : 0.118 FPS
Count of elements : 502
Stream size : 15.6 KiB (0%)
Title : Korean (South Korea)
Language : Korean
Default : No
Forced : No





Fallout S01E01


Fallout S01E01


Fallout S01E01


Fallout S01E01


Fallout S01E01

All episodes