Index
# A B C D E F G H I J K L M N O P Q R S T U V W X Y Z
Tags
Language
Tags
July 2024
Su Mo Tu We Th Fr Sa
30 1 2 3 4 5 6
7 8 9 10 11 12 13
14 15 16 17 18 19 20
21 22 23 24 25 26 27
28 29 30 31 1 2 3

Featured TV Shows


Fallout S01E02

Posted By: Tavaz
2160p (4k UHD) / WEB-DL IMDb
Fallout S01E02

Fallout S01E02
WEB-DL | MKV | 3840x1600 | English | H265 @ 14037 kbps | E-AC-3 @ 576.0 kbps | 1 h 5 min | 6.69 GiB
Subtitles: 한국어, Українська, Dansk, 日本語, Français, English, tiếng Việt, हिन्दी, Bokmål, العربية, Čeština, Nederlands, Español, Suomi, עברית, Bahasa Indonesia, 中文, ภาษาไทย, Română, Català, Deutsch, Magyar, Português, Ελληνικά, Italiano, Polski, Русский, Türkçe, Svenska
Genre: Comedy


The story of haves and have-nots in a world in which there’s almost nothing left to have. 200 years after the apocalypse, the gentle denizens of luxury fallout shelters are forced to return to the irradiated hellscape their ancestors left behind — and are shocked to discover an incredibly complex, gleefully weird, and highly violent universe waiting for them.

95100e0098e2438fbf8492209aa76307.mkv (6.7 GB)



General
Unique ID : 58651687885791666633184251313663563222 (0x2C1FE77992BE24BBB045F71045D4D5D6)
Complete name : ./95100e0098e2438fbf8492209aa76307.mkv
Format : Matroska
Format version : Version 4
File size : 6.69 GiB
Duration : 1 h 5 min
Overall bit rate : 14.6 Mb/s
Writing application : mkvmerge v81.0 ('Milliontown') 64-bit
Writing library : libebml v1.4.4 + libmatroska v1.7.1

Video
ID : 1
Format : HEVC
Format/Info : High Efficiency Video Coding
Format profile : Main@L5@Main
Codec ID : V_MPEGH/ISO/HEVC
Duration : 1 h 5 min
Bit rate : 14.0 Mb/s
Width : 3 840 pixels
Height : 1 600 pixels
Display aspect ratio : 2.40:1
Frame rate mode : Constant
Frame rate : 24.000 FPS
Color space : YUV
Chroma subsampling : 4:2:0
Bit depth : 8 bits
Bits/(Pixel*Frame) : 0.095
Stream size : 6.42 GiB (96%)
Default : Yes
Forced : No
Color range : Limited
Color primaries : BT.709
Transfer characteristics : BT.709
Matrix coefficients : BT.709

Audio
ID : 2
Format : E-AC-3 JOC
Format/Info : Enhanced AC-3 with Joint Object Coding
Commercial name : Dolby Digital Plus with Dolby Atmos
Codec ID : A_EAC3
Duration : 1 h 5 min
Bit rate mode : Constant
Bit rate : 576 kb/s
Channel(s) : 6 channels
Channel layout : L R C LFE Ls Rs
Sampling rate : 48.0 kHz
Frame rate : 31.250 FPS (1536 SPF)
Compression mode : Lossy
Stream size : 270 MiB (4%)
Language : English
Service kind : Complete Main
Default : Yes
Forced : No
Complexity index : 16
Number of dynamic objects : 15
Bed channel count : 1 channel
Bed channel configuration : LFE

Text #1
ID : 3
Format : UTF-8
Codec ID : S_TEXT/UTF8
Codec ID/Info : UTF-8 Plain Text
Duration : 1 h 1 min
Bit rate : 41 b/s
Frame rate : 0.179 FPS
Count of elements : 663
Stream size : 18.9 KiB (0%)
Language : English
Default : No
Forced : No

Text #2
ID : 4
Format : UTF-8
Codec ID : S_TEXT/UTF8
Codec ID/Info : UTF-8 Plain Text
Duration : 1 h 1 min
Bit rate : 49 b/s
Frame rate : 0.220 FPS
Count of elements : 816
Stream size : 22.4 KiB (0%)
Title : SDH
Language : English
Default : No
Forced : No

Text #3
ID : 5
Format : UTF-8
Codec ID : S_TEXT/UTF8
Codec ID/Info : UTF-8 Plain Text
Duration : 1 h 1 min
Bit rate : 47 b/s
Frame rate : 0.127 FPS
Count of elements : 472
Stream size : 21.5 KiB (0%)
Language : Arabic
Default : No
Forced : No

Text #4
ID : 6
Format : UTF-8
Codec ID : S_TEXT/UTF8
Codec ID/Info : UTF-8 Plain Text
Duration : 1 h 1 min
Bit rate : 25 b/s
Frame rate : 0.127 FPS
Count of elements : 470
Stream size : 11.5 KiB (0%)
Language : Catalan
Default : No
Forced : No

Text #5
ID : 7
Format : UTF-8
Codec ID : S_TEXT/UTF8
Codec ID/Info : UTF-8 Plain Text
Duration : 1 h 1 min
Bit rate : 28 b/s
Frame rate : 0.125 FPS
Count of elements : 462
Stream size : 12.8 KiB (0%)
Language : Czech
Default : No
Forced : No

Text #6
ID : 8
Format : UTF-8
Codec ID : S_TEXT/UTF8
Codec ID/Info : UTF-8 Plain Text
Duration : 1 h 1 min
Bit rate : 25 b/s
Frame rate : 0.126 FPS
Count of elements : 467
Stream size : 11.5 KiB (0%)
Language : Danish
Default : No
Forced : No

Text #7
ID : 9
Format : UTF-8
Codec ID : S_TEXT/UTF8
Codec ID/Info : UTF-8 Plain Text
Duration : 1 h 1 min
Bit rate : 27 b/s
Frame rate : 0.126 FPS
Count of elements : 468
Stream size : 12.6 KiB (0%)
Language : German
Default : No
Forced : No

Text #8
ID : 10
Format : UTF-8
Codec ID : S_TEXT/UTF8
Codec ID/Info : UTF-8 Plain Text
Duration : 1 h 1 min
Bit rate : 50 b/s
Frame rate : 0.127 FPS
Count of elements : 470
Stream size : 22.7 KiB (0%)
Language : Greek
Default : No
Forced : No

Text #9
ID : 11
Format : UTF-8
Codec ID : S_TEXT/UTF8
Codec ID/Info : UTF-8 Plain Text
Duration : 1 h 1 min
Bit rate : 27 b/s
Frame rate : 0.126 FPS
Count of elements : 466
Stream size : 12.4 KiB (0%)
Title : Spanish (Latin America)
Language : Spanish
Default : No
Forced : No

Text #10
ID : 12
Format : UTF-8
Codec ID : S_TEXT/UTF8
Codec ID/Info : UTF-8 Plain Text
Duration : 1 h 1 min
Bit rate : 28 b/s
Frame rate : 0.123 FPS
Count of elements : 456
Stream size : 12.9 KiB (0%)
Title : Spanish (Spain)
Language : Spanish
Default : No
Forced : No

Text #11
ID : 13
Format : UTF-8
Codec ID : S_TEXT/UTF8
Codec ID/Info : UTF-8 Plain Text
Duration : 1 h 1 min
Bit rate : 25 b/s
Frame rate : 0.125 FPS
Count of elements : 465
Stream size : 11.3 KiB (0%)
Language : Basque
Default : No
Forced : No

Text #12
ID : 14
Format : UTF-8
Codec ID : S_TEXT/UTF8
Codec ID/Info : UTF-8 Plain Text
Duration : 1 h 1 min
Bit rate : 26 b/s
Frame rate : 0.126 FPS
Count of elements : 468
Stream size : 11.9 KiB (0%)
Language : Finnish
Default : No
Forced : No

Text #13
ID : 15
Format : UTF-8
Codec ID : S_TEXT/UTF8
Codec ID/Info : UTF-8 Plain Text
Duration : 1 h 1 min
Bit rate : 29 b/s
Frame rate : 0.125 FPS
Count of elements : 464
Stream size : 13.5 KiB (0%)
Language : fil
Default : No
Forced : No

Text #14
ID : 16
Format : UTF-8
Codec ID : S_TEXT/UTF8
Codec ID/Info : UTF-8 Plain Text
Duration : 1 h 1 min
Bit rate : 29 b/s
Frame rate : 0.125 FPS
Count of elements : 465
Stream size : 13.5 KiB (0%)
Title : French (Canada)
Language : French
Default : No
Forced : No

Text #15
ID : 17
Format : UTF-8
Codec ID : S_TEXT/UTF8
Codec ID/Info : UTF-8 Plain Text
Duration : 1 h 1 min
Bit rate : 26 b/s
Frame rate : 0.118 FPS
Count of elements : 437
Stream size : 11.8 KiB (0%)
Title : French (France)
Language : French
Default : No
Forced : No

Text #16
ID : 18
Format : UTF-8
Codec ID : S_TEXT/UTF8
Codec ID/Info : UTF-8 Plain Text
Duration : 1 h 1 min
Bit rate : 25 b/s
Frame rate : 0.126 FPS
Count of elements : 468
Stream size : 11.5 KiB (0%)
Language : Galician
Default : No
Forced : No

Text #17
ID : 19
Format : UTF-8
Codec ID : S_TEXT/UTF8
Codec ID/Info : UTF-8 Plain Text
Duration : 1 h 1 min
Bit rate : 44 b/s
Frame rate : 0.128 FPS
Count of elements : 474
Stream size : 20.1 KiB (0%)
Language : Hebrew
Default : No
Forced : No

Text #18
ID : 20
Format : UTF-8
Codec ID : S_TEXT/UTF8
Codec ID/Info : UTF-8 Plain Text
Duration : 1 h 1 min
Bit rate : 62 b/s
Frame rate : 0.127 FPS
Count of elements : 472
Stream size : 28.4 KiB (0%)
Language : Hindi
Default : No
Forced : No

Text #19
ID : 21
Format : UTF-8
Codec ID : S_TEXT/UTF8
Codec ID/Info : UTF-8 Plain Text
Duration : 1 h 1 min
Bit rate : 28 b/s
Frame rate : 0.126 FPS
Count of elements : 467
Stream size : 13.0 KiB (0%)
Language : Hungarian
Default : No
Forced : No

Text #20
ID : 22
Format : UTF-8
Codec ID : S_TEXT/UTF8
Codec ID/Info : UTF-8 Plain Text
Duration : 1 h 1 min
Bit rate : 26 b/s
Frame rate : 0.126 FPS
Count of elements : 469
Stream size : 12.0 KiB (0%)
Language : Indonesian
Default : No
Forced : No

Text #21
ID : 23
Format : UTF-8
Codec ID : S_TEXT/UTF8
Codec ID/Info : UTF-8 Plain Text
Duration : 1 h 1 min
Bit rate : 28 b/s
Frame rate : 0.126 FPS
Count of elements : 468
Stream size : 12.7 KiB (0%)
Language : Italian
Default : No
Forced : No

Text #22
ID : 24
Format : UTF-8
Codec ID : S_TEXT/UTF8
Codec ID/Info : UTF-8 Plain Text
Duration : 1 h 1 min
Bit rate : 27 b/s
Frame rate : 0.122 FPS
Count of elements : 453
Stream size : 12.2 KiB (0%)
Language : Japanese
Default : No
Forced : No

Text #23
ID : 25
Format : UTF-8
Codec ID : S_TEXT/UTF8
Codec ID/Info : UTF-8 Plain Text
Duration : 1 h 1 min
Bit rate : 69 b/s
Frame rate : 0.128 FPS
Count of elements : 473
Stream size : 31.3 KiB (0%)
Language : Kannada
Default : No
Forced : No

Text #24
ID : 26
Format : UTF-8
Codec ID : S_TEXT/UTF8
Codec ID/Info : UTF-8 Plain Text
Duration : 1 h 1 min
Bit rate : 30 b/s
Frame rate : 0.127 FPS
Count of elements : 472
Stream size : 13.9 KiB (0%)
Language : Korean
Default : No
Forced : No

Text #25
ID : 27
Format : UTF-8
Codec ID : S_TEXT/UTF8
Codec ID/Info : UTF-8 Plain Text
Duration : 1 h 1 min
Bit rate : 83 b/s
Frame rate : 0.124 FPS
Count of elements : 461
Stream size : 37.6 KiB (0%)
Language : Malayalam
Default : No
Forced : No

Text #26
ID : 28
Format : UTF-8
Codec ID : S_TEXT/UTF8
Codec ID/Info : UTF-8 Plain Text
Duration : 1 h 1 min
Bit rate : 27 b/s
Frame rate : 0.125 FPS
Count of elements : 463
Stream size : 12.4 KiB (0%)
Language : Malay
Default : No
Forced : No

Text #27
ID : 29
Format : UTF-8
Codec ID : S_TEXT/UTF8
Codec ID/Info : UTF-8 Plain Text
Duration : 1 h 1 min
Bit rate : 25 b/s
Frame rate : 0.127 FPS
Count of elements : 470
Stream size : 11.5 KiB (0%)
Language : Norwegian Bokmal
Default : No
Forced : No

Text #28
ID : 30
Format : UTF-8
Codec ID : S_TEXT/UTF8
Codec ID/Info : UTF-8 Plain Text
Duration : 1 h 1 min
Bit rate : 25 b/s
Frame rate : 0.121 FPS
Count of elements : 447
Stream size : 11.5 KiB (0%)
Language : Dutch
Default : No
Forced : No

Text #29
ID : 31
Format : UTF-8
Codec ID : S_TEXT/UTF8
Codec ID/Info : UTF-8 Plain Text
Duration : 1 h 1 min
Bit rate : 23 b/s
Frame rate : 0.125 FPS
Count of elements : 464
Stream size : 10.7 KiB (0%)
Language : Polish
Default : No
Forced : No

Text #30
ID : 32
Format : UTF-8
Codec ID : S_TEXT/UTF8
Codec ID/Info : UTF-8 Plain Text
Duration : 1 h 1 min
Bit rate : 26 b/s
Frame rate : 0.126 FPS
Count of elements : 468
Stream size : 12.1 KiB (0%)
Title : Portuguese (Brazil)
Language : Portuguese
Default : No
Forced : No

Text #31
ID : 33
Format : UTF-8
Codec ID : S_TEXT/UTF8
Codec ID/Info : UTF-8 Plain Text
Duration : 1 h 1 min
Bit rate : 25 b/s
Frame rate : 0.126 FPS
Count of elements : 469
Stream size : 11.7 KiB (0%)
Title : Portuguese (Portugal)
Language : Portuguese
Default : No
Forced : No

Text #32
ID : 34
Format : UTF-8
Codec ID : S_TEXT/UTF8
Codec ID/Info : UTF-8 Plain Text
Duration : 1 h 1 min
Bit rate : 29 b/s
Frame rate : 0.126 FPS
Count of elements : 466
Stream size : 13.2 KiB (0%)
Language : Romanian
Default : No
Forced : No

Text #33
ID : 35
Format : UTF-8
Codec ID : S_TEXT/UTF8
Codec ID/Info : UTF-8 Plain Text
Duration : 1 h 1 min
Bit rate : 47 b/s
Frame rate : 0.128 FPS
Count of elements : 474
Stream size : 21.6 KiB (0%)
Language : Russian
Default : No
Forced : No

Text #34
ID : 36
Format : UTF-8
Codec ID : S_TEXT/UTF8
Codec ID/Info : UTF-8 Plain Text
Duration : 1 h 1 min
Bit rate : 27 b/s
Frame rate : 0.126 FPS
Count of elements : 466
Stream size : 12.4 KiB (0%)
Language : Swedish
Default : No
Forced : No

Text #35
ID : 37
Format : UTF-8
Codec ID : S_TEXT/UTF8
Codec ID/Info : UTF-8 Plain Text
Duration : 1 h 1 min
Bit rate : 78 b/s
Frame rate : 0.128 FPS
Count of elements : 474
Stream size : 35.7 KiB (0%)
Language : Tamil
Default : No
Forced : No

Text #36
ID : 38
Format : UTF-8
Codec ID : S_TEXT/UTF8
Codec ID/Info : UTF-8 Plain Text
Duration : 1 h 1 min
Bit rate : 73 b/s
Frame rate : 0.127 FPS
Count of elements : 472
Stream size : 33.3 KiB (0%)
Language : Telugu
Default : No
Forced : No

Text #37
ID : 39
Format : UTF-8
Codec ID : S_TEXT/UTF8
Codec ID/Info : UTF-8 Plain Text
Duration : 1 h 1 min
Bit rate : 67 b/s
Frame rate : 0.128 FPS
Count of elements : 474
Stream size : 30.7 KiB (0%)
Language : Thai
Default : No
Forced : No

Text #38
ID : 40
Format : UTF-8
Codec ID : S_TEXT/UTF8
Codec ID/Info : UTF-8 Plain Text
Duration : 1 h 1 min
Bit rate : 28 b/s
Frame rate : 0.127 FPS
Count of elements : 470
Stream size : 13.1 KiB (0%)
Language : Turkish
Default : No
Forced : No

Text #39
ID : 41
Format : UTF-8
Codec ID : S_TEXT/UTF8
Codec ID/Info : UTF-8 Plain Text
Duration : 1 h 1 min
Bit rate : 45 b/s
Frame rate : 0.128 FPS
Count of elements : 473
Stream size : 20.4 KiB (0%)
Language : Ukrainian
Default : No
Forced : No

Text #40
ID : 42
Format : UTF-8
Codec ID : S_TEXT/UTF8
Codec ID/Info : UTF-8 Plain Text
Duration : 1 h 1 min
Bit rate : 36 b/s
Frame rate : 0.127 FPS
Count of elements : 470
Stream size : 16.4 KiB (0%)
Language : Vietnamese
Default : No
Forced : No

Text #41
ID : 43
Format : UTF-8
Codec ID : S_TEXT/UTF8
Codec ID/Info : UTF-8 Plain Text
Duration : 1 h 1 min
Bit rate : 24 b/s
Frame rate : 0.128 FPS
Count of elements : 475
Stream size : 11.2 KiB (0%)
Title : Chinese (Simplified)
Language : Chinese
Default : No
Forced : No

Text #42
ID : 44
Format : UTF-8
Codec ID : S_TEXT/UTF8
Codec ID/Info : UTF-8 Plain Text
Duration : 1 h 1 min
Bit rate : 24 b/s
Frame rate : 0.128 FPS
Count of elements : 476
Stream size : 11.0 KiB (0%)
Title : Chinese (Traditional)
Language : Chinese
Default : No
Forced : No

Menu
00:00:00.000 : :Studio Logo
00:00:18.000 : :Scene 2
00:05:40.000 : :Title Sequence
00:05:48.000 : :Scene 4
00:09:39.000 : :Scene 5
00:12:04.000 : :Scene 6
00:14:51.000 : :Scene 7
00:16:07.000 : :Scene 8
00:22:21.000 : :Scene 9
00:23:21.000 : :Scene 10
00:26:40.000 : :Scene 11
00:30:18.000 : :Scene 12
00:32:26.000 : :Scene 13
00:33:54.000 : :Scene 14
00:37:19.000 : :Scene 15
00:42:28.000 : :Scene 16
00:45:27.000 : :Scene 17
00:47:06.000 : :Scene 18
00:47:37.000 : :Scene 19
00:50:38.000 : :Scene 20
00:52:31.000 : :Scene 21
00:53:20.000 : :Scene 22
00:55:07.000 : :Scene 23
00:59:35.000 : :Scene 24
00:59:44.000 : :End Credits





Fallout S01E02


Fallout S01E02


Fallout S01E02


Fallout S01E02


Fallout S01E02

All episodes