Index
# A B C D E F G H I J K L M N O P Q R S T U V W X Y Z
Tags
Language
Tags
July 2024
Su Mo Tu We Th Fr Sa
30 1 2 3 4 5 6
7 8 9 10 11 12 13
14 15 16 17 18 19 20
21 22 23 24 25 26 27
28 29 30 31 1 2 3

Featured TV Shows


Fallout S01E03

Posted By: Tavaz
2160p (4k UHD) / WEB-DL IMDb
Fallout S01E03

Fallout S01E03
WEB-DL | MKV | 3840x1600 | English | H265 @ 13779 kbps | E-AC-3 @ 576.0 kbps | 56 min 59 s | 5.72 GiB
Subtitles: English, Suomi, 한국어, Русский, ภาษาไทย, Português, Español, Dansk, Bahasa Indonesia, Bokmål, 中文, Nederlands, 日本語, Ελληνικά, Svenska, Türkçe, Čeština, Українська, Polski, Română, Deutsch, Français, tiếng Việt, Magyar, हिन्दी, Català, עברית, Italiano, العربية
Genre: Comedy


The story of haves and have-nots in a world in which there’s almost nothing left to have. 200 years after the apocalypse, the gentle denizens of luxury fallout shelters are forced to return to the irradiated hellscape their ancestors left behind — and are shocked to discover an incredibly complex, gleefully weird, and highly violent universe waiting for them.

Fallout.S01E03.The.Head.2160p.AMZN.WEB-DL.DDP5.1.Atmos.DV.HDR.H.265-FLUX.mkv (5.7 GB)



General
Unique ID : 334037401740863302307087685856041216871 (0xFB4D4371D6ED19734C397F1149D5AB67)
Complete name : ./Fallout.S01E03.The.Head.2160p.AMZN.WEB-DL.DDP5.1.Atmos.DV.HDR.H.265-FLUX.mkv
Format : Matroska
Format version : Version 4
File size : 5.72 GiB
Duration : 56 min 59 s
Overall bit rate : 14.4 Mb/s
Writing application : mkvmerge v82.0 ('I'm The President') 64-bit
Writing library : libebml v1.4.5 + libmatroska v1.7.1

Video
ID : 1
Format : HEVC
Format/Info : High Efficiency Video Coding
Format profile : Main 10@L5@Main
HDR format : Dolby Vision, Version 1.0, dvhe.08.06, BL+RPU, HDR10 compatible / SMPTE ST 2094 App 4, Version 1, HDR10+ Profile B compatible
Codec ID : V_MPEGH/ISO/HEVC
Duration : 56 min 59 s
Bit rate : 13.8 Mb/s
Width : 3 840 pixels
Height : 1 600 pixels
Display aspect ratio : 2.40:1
Frame rate mode : Constant
Frame rate : 24.000 FPS
Color space : YUV
Chroma subsampling : 4:2:0
Bit depth : 10 bits
Bits/(Pixel*Frame) : 0.093
Stream size : 5.49 GiB (96%)
Language : English
Default : Yes
Forced : No
Color range : Limited
Color primaries : BT.2020
Transfer characteristics : PQ
Matrix coefficients : BT.2020 non-constant
Mastering display color primaries : Display P3
Mastering display luminance : min: 0.0001 cd/m2, max: 1000 cd/m2
Maximum Content Light Level : 943 cd/m2
Maximum Frame-Average Light Level : 185 cd/m2

Audio
ID : 2
Format : E-AC-3 JOC
Format/Info : Enhanced AC-3 with Joint Object Coding
Commercial name : Dolby Digital Plus with Dolby Atmos
Codec ID : A_EAC3
Duration : 56 min 59 s
Bit rate mode : Constant
Bit rate : 576 kb/s
Channel(s) : 6 channels
Channel layout : L R C LFE Ls Rs
Sampling rate : 48.0 kHz
Frame rate : 31.250 FPS (1536 SPF)
Compression mode : Lossy
Stream size : 235 MiB (4%)
Language : English
Service kind : Complete Main
Default : Yes
Forced : No
Complexity index : 16
Number of dynamic objects : 15
Bed channel count : 1 channel
Bed channel configuration : LFE

Text #1
ID : 3
Format : UTF-8
Codec ID : S_TEXT/UTF8
Codec ID/Info : UTF-8 Plain Text
Duration : 51 min 52 s
Bit rate : 51 b/s
Frame rate : 0.200 FPS
Count of elements : 624
Stream size : 19.4 KiB (0%)
Language : English
Default : No
Forced : No

Text #2
ID : 4
Format : UTF-8
Codec ID : S_TEXT/UTF8
Codec ID/Info : UTF-8 Plain Text
Duration : 53 min 25 s
Bit rate : 59 b/s
Frame rate : 0.244 FPS
Count of elements : 781
Stream size : 23.1 KiB (0%)
Title : SDH
Language : English
Default : No
Forced : No

Text #3
ID : 5
Format : UTF-8
Codec ID : S_TEXT/UTF8
Codec ID/Info : UTF-8 Plain Text
Duration : 53 min 34 s
Bit rate : 65 b/s
Frame rate : 0.170 FPS
Count of elements : 548
Stream size : 25.9 KiB (0%)
Language : Arabic
Default : No
Forced : No

Text #4
ID : 6
Format : UTF-8
Codec ID : S_TEXT/UTF8
Codec ID/Info : UTF-8 Plain Text
Duration : 53 min 34 s
Bit rate : 35 b/s
Frame rate : 0.169 FPS
Count of elements : 543
Stream size : 13.8 KiB (0%)
Title : European
Language : Catalan
Default : No
Forced : No

Text #5
ID : 7
Format : UTF-8
Codec ID : S_TEXT/UTF8
Codec ID/Info : UTF-8 Plain Text
Duration : 53 min 34 s
Bit rate : 39 b/s
Frame rate : 0.169 FPS
Count of elements : 542
Stream size : 15.5 KiB (0%)
Language : Czech
Default : No
Forced : No

Text #6
ID : 8
Format : UTF-8
Codec ID : S_TEXT/UTF8
Codec ID/Info : UTF-8 Plain Text
Duration : 53 min 34 s
Bit rate : 36 b/s
Frame rate : 0.168 FPS
Count of elements : 541
Stream size : 14.3 KiB (0%)
Language : Danish
Default : No
Forced : No

Text #7
ID : 9
Format : UTF-8
Codec ID : S_TEXT/UTF8
Codec ID/Info : UTF-8 Plain Text
Duration : 53 min 34 s
Bit rate : 37 b/s
Frame rate : 0.169 FPS
Count of elements : 543
Stream size : 14.9 KiB (0%)
Language : German
Default : No
Forced : No

Text #8
ID : 10
Format : UTF-8
Codec ID : S_TEXT/UTF8
Codec ID/Info : UTF-8 Plain Text
Duration : 53 min 34 s
Bit rate : 71 b/s
Frame rate : 0.169 FPS
Count of elements : 542
Stream size : 27.9 KiB (0%)
Language : Greek
Default : No
Forced : No

Text #9
ID : 11
Format : UTF-8
Codec ID : S_TEXT/UTF8
Codec ID/Info : UTF-8 Plain Text
Duration : 53 min 34 s
Bit rate : 38 b/s
Frame rate : 0.169 FPS
Count of elements : 542
Stream size : 15.1 KiB (0%)
Title : Latin American
Language : Spanish
Default : No
Forced : No

Text #10
ID : 12
Format : UTF-8
Codec ID : S_TEXT/UTF8
Codec ID/Info : UTF-8 Plain Text
Duration : 53 min 34 s
Bit rate : 36 b/s
Frame rate : 0.170 FPS
Count of elements : 545
Stream size : 14.2 KiB (0%)
Title : European
Language : Basque
Default : No
Forced : No

Text #11
ID : 13
Format : UTF-8
Codec ID : S_TEXT/UTF8
Codec ID/Info : UTF-8 Plain Text
Duration : 53 min 34 s
Bit rate : 37 b/s
Frame rate : 0.170 FPS
Count of elements : 546
Stream size : 14.7 KiB (0%)
Language : Finnish
Default : No
Forced : No

Text #12
ID : 14
Format : UTF-8
Codec ID : S_TEXT/UTF8
Codec ID/Info : UTF-8 Plain Text
Duration : 53 min 34 s
Bit rate : 41 b/s
Frame rate : 0.168 FPS
Count of elements : 539
Stream size : 16.3 KiB (0%)
Language : fil
Default : No
Forced : No

Text #13
ID : 15
Format : UTF-8
Codec ID : S_TEXT/UTF8
Codec ID/Info : UTF-8 Plain Text
Duration : 53 min 34 s
Bit rate : 42 b/s
Frame rate : 0.168 FPS
Count of elements : 541
Stream size : 16.7 KiB (0%)
Title : Canadian
Language : French
Default : No
Forced : No

Text #14
ID : 16
Format : UTF-8
Codec ID : S_TEXT/UTF8
Codec ID/Info : UTF-8 Plain Text
Duration : 53 min 34 s
Bit rate : 37 b/s
Frame rate : 0.155 FPS
Count of elements : 499
Stream size : 14.7 KiB (0%)
Language : French
Default : No
Forced : No

Text #15
ID : 17
Format : UTF-8
Codec ID : S_TEXT/UTF8
Codec ID/Info : UTF-8 Plain Text
Duration : 53 min 34 s
Bit rate : 35 b/s
Frame rate : 0.169 FPS
Count of elements : 544
Stream size : 14.1 KiB (0%)
Title : European
Language : Galician
Default : No
Forced : No

Text #16
ID : 18
Format : UTF-8
Codec ID : S_TEXT/UTF8
Codec ID/Info : UTF-8 Plain Text
Duration : 53 min 34 s
Bit rate : 62 b/s
Frame rate : 0.171 FPS
Count of elements : 550
Stream size : 24.4 KiB (0%)
Language : Hebrew
Default : No
Forced : No

Text #17
ID : 19
Format : UTF-8
Codec ID : S_TEXT/UTF8
Codec ID/Info : UTF-8 Plain Text
Duration : 53 min 34 s
Bit rate : 87 b/s
Frame rate : 0.170 FPS
Count of elements : 548
Stream size : 34.3 KiB (0%)
Language : Hindi
Default : No
Forced : No

Text #18
ID : 20
Format : UTF-8
Codec ID : S_TEXT/UTF8
Codec ID/Info : UTF-8 Plain Text
Duration : 53 min 34 s
Bit rate : 39 b/s
Frame rate : 0.170 FPS
Count of elements : 545
Stream size : 15.7 KiB (0%)
Language : Hungarian
Default : No
Forced : No

Text #19
ID : 21
Format : UTF-8
Codec ID : S_TEXT/UTF8
Codec ID/Info : UTF-8 Plain Text
Duration : 53 min 34 s
Bit rate : 36 b/s
Frame rate : 0.169 FPS
Count of elements : 543
Stream size : 14.4 KiB (0%)
Language : Indonesian
Default : No
Forced : No

Text #20
ID : 22
Format : UTF-8
Codec ID : S_TEXT/UTF8
Codec ID/Info : UTF-8 Plain Text
Duration : 53 min 34 s
Bit rate : 39 b/s
Frame rate : 0.169 FPS
Count of elements : 542
Stream size : 15.4 KiB (0%)
Language : Italian
Default : No
Forced : No

Text #21
ID : 23
Format : UTF-8
Codec ID : S_TEXT/UTF8
Codec ID/Info : UTF-8 Plain Text
Duration : 53 min 34 s
Bit rate : 35 b/s
Frame rate : 0.157 FPS
Count of elements : 506
Stream size : 14.0 KiB (0%)
Language : Japanese
Default : No
Forced : No

Text #22
ID : 24
Format : UTF-8
Codec ID : S_TEXT/UTF8
Codec ID/Info : UTF-8 Plain Text
Duration : 53 min 34 s
Bit rate : 96 b/s
Frame rate : 0.170 FPS
Count of elements : 548
Stream size : 37.7 KiB (0%)
Language : Kannada
Default : No
Forced : No

Text #23
ID : 25
Format : UTF-8
Codec ID : S_TEXT/UTF8
Codec ID/Info : UTF-8 Plain Text
Duration : 53 min 34 s
Bit rate : 42 b/s
Frame rate : 0.170 FPS
Count of elements : 545
Stream size : 16.5 KiB (0%)
Language : Korean
Default : No
Forced : No

Text #24
ID : 26
Format : UTF-8
Codec ID : S_TEXT/UTF8
Codec ID/Info : UTF-8 Plain Text
Duration : 53 min 34 s
Bit rate : 118 b/s
Frame rate : 0.169 FPS
Count of elements : 544
Stream size : 46.6 KiB (0%)
Language : Malayalam
Default : No
Forced : No

Text #25
ID : 27
Format : UTF-8
Codec ID : S_TEXT/UTF8
Codec ID/Info : UTF-8 Plain Text
Duration : 53 min 34 s
Bit rate : 40 b/s
Frame rate : 0.168 FPS
Count of elements : 540
Stream size : 15.7 KiB (0%)
Language : Malay
Default : No
Forced : No

Text #26
ID : 28
Format : UTF-8
Codec ID : S_TEXT/UTF8
Codec ID/Info : UTF-8 Plain Text
Duration : 53 min 34 s
Bit rate : 36 b/s
Frame rate : 0.169 FPS
Count of elements : 544
Stream size : 14.2 KiB (0%)
Language : Norwegian Bokmal
Default : No
Forced : No

Text #27
ID : 29
Format : UTF-8
Codec ID : S_TEXT/UTF8
Codec ID/Info : UTF-8 Plain Text
Duration : 53 min 34 s
Bit rate : 34 b/s
Frame rate : 0.160 FPS
Count of elements : 514
Stream size : 13.5 KiB (0%)
Language : Dutch
Default : No
Forced : No

Text #28
ID : 30
Format : UTF-8
Codec ID : S_TEXT/UTF8
Codec ID/Info : UTF-8 Plain Text
Duration : 53 min 34 s
Bit rate : 32 b/s
Frame rate : 0.167 FPS
Count of elements : 537
Stream size : 12.7 KiB (0%)
Language : Polish
Default : No
Forced : No

Text #29
ID : 31
Format : UTF-8
Codec ID : S_TEXT/UTF8
Codec ID/Info : UTF-8 Plain Text
Duration : 53 min 34 s
Bit rate : 36 b/s
Frame rate : 0.170 FPS
Count of elements : 545
Stream size : 14.3 KiB (0%)
Language : Portuguese
Default : No
Forced : No

Text #30
ID : 32
Format : UTF-8
Codec ID : S_TEXT/UTF8
Codec ID/Info : UTF-8 Plain Text
Duration : 53 min 34 s
Bit rate : 42 b/s
Frame rate : 0.170 FPS
Count of elements : 545
Stream size : 16.5 KiB (0%)
Language : Romanian
Default : No
Forced : No

Text #31
ID : 33
Format : UTF-8
Codec ID : S_TEXT/UTF8
Codec ID/Info : UTF-8 Plain Text
Duration : 53 min 34 s
Bit rate : 65 b/s
Frame rate : 0.170 FPS
Count of elements : 548
Stream size : 25.9 KiB (0%)
Language : Russian
Default : No
Forced : No

Text #32
ID : 34
Format : UTF-8
Codec ID : S_TEXT/UTF8
Codec ID/Info : UTF-8 Plain Text
Duration : 53 min 34 s
Bit rate : 39 b/s
Frame rate : 0.169 FPS
Count of elements : 544
Stream size : 15.6 KiB (0%)
Language : Swedish
Default : No
Forced : No

Text #33
ID : 35
Format : UTF-8
Codec ID : S_TEXT/UTF8
Codec ID/Info : UTF-8 Plain Text
Duration : 53 min 34 s
Bit rate : 110 b/s
Frame rate : 0.171 FPS
Count of elements : 550
Stream size : 43.3 KiB (0%)
Language : Tamil
Default : No
Forced : No

Text #34
ID : 36
Format : UTF-8
Codec ID : S_TEXT/UTF8
Codec ID/Info : UTF-8 Plain Text
Duration : 53 min 34 s
Bit rate : 101 b/s
Frame rate : 0.170 FPS
Count of elements : 547
Stream size : 39.7 KiB (0%)
Language : Telugu
Default : No
Forced : No

Text #35
ID : 37
Format : UTF-8
Codec ID : S_TEXT/UTF8
Codec ID/Info : UTF-8 Plain Text
Duration : 53 min 34 s
Bit rate : 100 b/s
Frame rate : 0.171 FPS
Count of elements : 549
Stream size : 39.4 KiB (0%)
Language : Thai
Default : No
Forced : No

Text #36
ID : 38
Format : UTF-8
Codec ID : S_TEXT/UTF8
Codec ID/Info : UTF-8 Plain Text
Duration : 53 min 34 s
Bit rate : 40 b/s
Frame rate : 0.170 FPS
Count of elements : 547
Stream size : 15.7 KiB (0%)
Language : Turkish
Default : No
Forced : No

Text #37
ID : 39
Format : UTF-8
Codec ID : S_TEXT/UTF8
Codec ID/Info : UTF-8 Plain Text
Duration : 53 min 34 s
Bit rate : 63 b/s
Frame rate : 0.171 FPS
Count of elements : 549
Stream size : 25.1 KiB (0%)
Title : Ukraine
Language : Ukrainian
Default : No
Forced : No

Text #38
ID : 40
Format : UTF-8
Codec ID : S_TEXT/UTF8
Codec ID/Info : UTF-8 Plain Text
Duration : 53 min 34 s
Bit rate : 51 b/s
Frame rate : 0.170 FPS
Count of elements : 547
Stream size : 20.1 KiB (0%)
Title : Vietnam
Language : Vietnamese
Default : No
Forced : No

Text #39
ID : 41
Format : UTF-8
Codec ID : S_TEXT/UTF8
Codec ID/Info : UTF-8 Plain Text
Duration : 53 min 34 s
Bit rate : 36 b/s
Frame rate : 0.170 FPS
Count of elements : 547
Stream size : 14.2 KiB (0%)
Title : Simplified
Language : Chinese
Default : No
Forced : No

Text #40
ID : 42
Format : UTF-8
Codec ID : S_TEXT/UTF8
Codec ID/Info : UTF-8 Plain Text
Duration : 53 min 34 s
Bit rate : 35 b/s
Frame rate : 0.171 FPS
Count of elements : 549
Stream size : 14.1 KiB (0%)
Title : Traditional
Language : Chinese
Default : No
Forced : No

Menu
00:00:00.000 : en:Studio Logo
00:00:09.000 : en:Previously On
00:01:10.000 : en:Studio Logo
00:01:21.000 : en:Scene 1
00:05:25.000 : en:Scene 2
00:07:06.000 : en:Title Sequence
00:07:14.000 : en:Scene 3
00:09:38.000 : en:Scene 4
00:11:13.000 : en:Scene 5
00:12:50.000 : en:Scene 6
00:13:12.000 : en:Scene 7
00:16:36.000 : en:Scene 8
00:16:53.000 : en:Scene 9
00:18:56.000 : en:Scene 10
00:22:41.000 : en:Scene 11
00:25:50.000 : en:Scene 12
00:26:42.000 : en:Scene 13
00:27:42.000 : en:Scene 14
00:28:38.000 : en:Scene 15
00:29:54.000 : en:Scene 16
00:31:59.000 : en:Scene 17
00:33:13.000 : en:Scene 18
00:35:19.000 : en:Scene 19
00:35:37.000 : en:Scene 20
00:36:38.000 : en:Scene 21
00:38:04.000 : en:Scene 22
00:38:34.000 : en:Scene 23
00:39:37.000 : en:Scene 24
00:42:32.000 : en:Scene 25
00:44:36.000 : en:Scene 26
00:45:21.000 : en:Scene 27
00:45:58.000 : en:Scene 28
00:48:40.000 : en:Scene 29
00:50:57.000 : en:End Credits





Fallout S01E03


Fallout S01E03


Fallout S01E03


Fallout S01E03


Fallout S01E03

All episodes