Index
# A B C D E F G H I J K L M N O P Q R S T U V W X Y Z
Tags
Language
Tags
July 2024
Su Mo Tu We Th Fr Sa
30 1 2 3 4 5 6
7 8 9 10 11 12 13
14 15 16 17 18 19 20
21 22 23 24 25 26 27
28 29 30 31 1 2 3

Featured TV Shows


Fallout S01E04

Posted By: Tavaz
2160p (4k UHD) / WEB-DL IMDb
Fallout S01E04

Fallout S01E04
WEB-DL | MKV | 3840x2160 | English | H265 @ 15921 kbps | E-AC-3 @ 576.0 kbps | 48 min 40 s | 5.61 GiB
Subtitles: English, Suomi, 한국어, Русский, ภาษาไทย, Português, Español, Dansk, Bahasa Indonesia, Bokmål, 中文, Nederlands, 日本語, Ελληνικά, Svenska, Türkçe, Čeština, Українська, Polski, Română, Deutsch, Français, tiếng Việt, Magyar, हिन्दी, Català, עברית, Italiano, العربية
Genre: Comedy


The story of haves and have-nots in a world in which there’s almost nothing left to have. 200 years after the apocalypse, the gentle denizens of luxury fallout shelters are forced to return to the irradiated hellscape their ancestors left behind — and are shocked to discover an incredibly complex, gleefully weird, and highly violent universe waiting for them.

2bc9118b8b08412dbe472688fb6d3f84.mkv (5.6 GB)



General
Unique ID : 208481735250229420848148805578952099353 (0x9CD81F2643C2EA2EC55DE001C8C94619)
Complete name : ./2bc9118b8b08412dbe472688fb6d3f84.mkv
Format : Matroska
Format version : Version 4
File size : 5.61 GiB
Duration : 48 min 40 s
Overall bit rate : 16.5 Mb/s
Writing application : mkvmerge v81.0 ('Milliontown') 64-bit
Writing library : libebml v1.4.4 + libmatroska v1.7.1

Video
ID : 1
Format : HEVC
Format/Info : High Efficiency Video Coding
Format profile : Main 10@L5@Main
HDR format : Dolby Vision, Version 1.0, dvhe.05.06, BL+RPU
Codec ID : V_MPEGH/ISO/HEVC
Duration : 48 min 40 s
Bit rate : 15.9 Mb/s
Width : 3 840 pixels
Height : 2 160 pixels
Display aspect ratio : 16:9
Frame rate mode : Constant
Frame rate : 24.000 FPS
Color space : YUV
Chroma subsampling : 4:2:0
Bit depth : 10 bits
Bits/(Pixel*Frame) : 0.080
Stream size : 5.41 GiB (96%)
Default : Yes
Forced : No
Color range : Full

Audio
ID : 2
Format : E-AC-3 JOC
Format/Info : Enhanced AC-3 with Joint Object Coding
Commercial name : Dolby Digital Plus with Dolby Atmos
Codec ID : A_EAC3
Duration : 48 min 40 s
Bit rate mode : Constant
Bit rate : 576 kb/s
Channel(s) : 6 channels
Channel layout : L R C LFE Ls Rs
Sampling rate : 48.0 kHz
Frame rate : 31.250 FPS (1536 SPF)
Compression mode : Lossy
Stream size : 201 MiB (3%)
Language : English
Service kind : Complete Main
Default : Yes
Forced : No
Complexity index : 16
Number of dynamic objects : 15
Bed channel count : 1 channel
Bed channel configuration : LFE

Text #1
ID : 3
Format : UTF-8
Codec ID : S_TEXT/UTF8
Codec ID/Info : UTF-8 Plain Text
Duration : 42 min 31 s
Bit rate : 45 b/s
Frame rate : 0.182 FPS
Count of elements : 465
Stream size : 14.2 KiB (0%)
Language : English
Default : No
Forced : No

Text #2
ID : 4
Format : UTF-8
Codec ID : S_TEXT/UTF8
Codec ID/Info : UTF-8 Plain Text
Duration : 45 min 29 s
Bit rate : 51 b/s
Frame rate : 0.221 FPS
Count of elements : 602
Stream size : 17.1 KiB (0%)
Title : SDH
Language : English
Default : No
Forced : No

Text #3
ID : 5
Format : UTF-8
Codec ID : S_TEXT/UTF8
Codec ID/Info : UTF-8 Plain Text
Duration : 45 min 29 s
Bit rate : 58 b/s
Frame rate : 0.150 FPS
Count of elements : 409
Stream size : 19.6 KiB (0%)
Language : Arabic
Default : No
Forced : No

Text #4
ID : 6
Format : UTF-8
Codec ID : S_TEXT/UTF8
Codec ID/Info : UTF-8 Plain Text
Duration : 45 min 29 s
Bit rate : 31 b/s
Frame rate : 0.149 FPS
Count of elements : 408
Stream size : 10.6 KiB (0%)
Language : Catalan
Default : No
Forced : No

Text #5
ID : 7
Format : UTF-8
Codec ID : S_TEXT/UTF8
Codec ID/Info : UTF-8 Plain Text
Duration : 45 min 29 s
Bit rate : 36 b/s
Frame rate : 0.146 FPS
Count of elements : 399
Stream size : 12.1 KiB (0%)
Language : Czech
Default : No
Forced : No

Text #6
ID : 8
Format : UTF-8
Codec ID : S_TEXT/UTF8
Codec ID/Info : UTF-8 Plain Text
Duration : 45 min 29 s
Bit rate : 32 b/s
Frame rate : 0.149 FPS
Count of elements : 406
Stream size : 10.9 KiB (0%)
Language : Danish
Default : No
Forced : No

Text #7
ID : 9
Format : UTF-8
Codec ID : S_TEXT/UTF8
Codec ID/Info : UTF-8 Plain Text
Duration : 45 min 29 s
Bit rate : 34 b/s
Frame rate : 0.149 FPS
Count of elements : 407
Stream size : 11.7 KiB (0%)
Language : German
Default : No
Forced : No

Text #8
ID : 10
Format : UTF-8
Codec ID : S_TEXT/UTF8
Codec ID/Info : UTF-8 Plain Text
Duration : 45 min 29 s
Bit rate : 63 b/s
Frame rate : 0.149 FPS
Count of elements : 407
Stream size : 21.2 KiB (0%)
Language : Greek
Default : No
Forced : No

Text #9
ID : 11
Format : UTF-8
Codec ID : S_TEXT/UTF8
Codec ID/Info : UTF-8 Plain Text
Duration : 45 min 29 s
Bit rate : 34 b/s
Frame rate : 0.148 FPS
Count of elements : 404
Stream size : 11.5 KiB (0%)
Title : Spanish (Latin America)
Language : Spanish
Default : No
Forced : No

Text #10
ID : 12
Format : UTF-8
Codec ID : S_TEXT/UTF8
Codec ID/Info : UTF-8 Plain Text
Duration : 45 min 30 s
Bit rate : 34 b/s
Frame rate : 0.140 FPS
Count of elements : 381
Stream size : 11.4 KiB (0%)
Title : Spanish (Spain)
Language : Spanish
Default : No
Forced : No

Text #11
ID : 13
Format : UTF-8
Codec ID : S_TEXT/UTF8
Codec ID/Info : UTF-8 Plain Text
Duration : 45 min 29 s
Bit rate : 32 b/s
Frame rate : 0.148 FPS
Count of elements : 405
Stream size : 10.7 KiB (0%)
Language : Basque
Default : No
Forced : No

Text #12
ID : 14
Format : UTF-8
Codec ID : S_TEXT/UTF8
Codec ID/Info : UTF-8 Plain Text
Duration : 45 min 29 s
Bit rate : 33 b/s
Frame rate : 0.143 FPS
Count of elements : 390
Stream size : 11.2 KiB (0%)
Language : Finnish
Default : No
Forced : No

Text #13
ID : 15
Format : UTF-8
Codec ID : S_TEXT/UTF8
Codec ID/Info : UTF-8 Plain Text
Duration : 45 min 29 s
Bit rate : 38 b/s
Frame rate : 0.148 FPS
Count of elements : 403
Stream size : 12.7 KiB (0%)
Language : fil
Default : No
Forced : No

Text #14
ID : 16
Format : UTF-8
Codec ID : S_TEXT/UTF8
Codec ID/Info : UTF-8 Plain Text
Duration : 45 min 29 s
Bit rate : 38 b/s
Frame rate : 0.148 FPS
Count of elements : 405
Stream size : 12.7 KiB (0%)
Title : French (Canada)
Language : French
Default : No
Forced : No

Text #15
ID : 17
Format : UTF-8
Codec ID : S_TEXT/UTF8
Codec ID/Info : UTF-8 Plain Text
Duration : 45 min 29 s
Bit rate : 33 b/s
Frame rate : 0.139 FPS
Count of elements : 380
Stream size : 11.1 KiB (0%)
Title : French (France)
Language : French
Default : No
Forced : No

Text #16
ID : 18
Format : UTF-8
Codec ID : S_TEXT/UTF8
Codec ID/Info : UTF-8 Plain Text
Duration : 45 min 29 s
Bit rate : 32 b/s
Frame rate : 0.149 FPS
Count of elements : 407
Stream size : 10.7 KiB (0%)
Language : Galician
Default : No
Forced : No

Text #17
ID : 19
Format : UTF-8
Codec ID : S_TEXT/UTF8
Codec ID/Info : UTF-8 Plain Text
Duration : 45 min 29 s
Bit rate : 55 b/s
Frame rate : 0.150 FPS
Count of elements : 410
Stream size : 18.3 KiB (0%)
Language : Hebrew
Default : No
Forced : No

Text #18
ID : 20
Format : UTF-8
Codec ID : S_TEXT/UTF8
Codec ID/Info : UTF-8 Plain Text
Duration : 45 min 29 s
Bit rate : 79 b/s
Frame rate : 0.150 FPS
Count of elements : 410
Stream size : 26.5 KiB (0%)
Language : Hindi
Default : No
Forced : No

Text #19
ID : 21
Format : UTF-8
Codec ID : S_TEXT/UTF8
Codec ID/Info : UTF-8 Plain Text
Duration : 45 min 29 s
Bit rate : 36 b/s
Frame rate : 0.149 FPS
Count of elements : 407
Stream size : 12.2 KiB (0%)
Language : Hungarian
Default : No
Forced : No

Text #20
ID : 22
Format : UTF-8
Codec ID : S_TEXT/UTF8
Codec ID/Info : UTF-8 Plain Text
Duration : 45 min 29 s
Bit rate : 33 b/s
Frame rate : 0.149 FPS
Count of elements : 406
Stream size : 11.1 KiB (0%)
Language : Indonesian
Default : No
Forced : No

Text #21
ID : 23
Format : UTF-8
Codec ID : S_TEXT/UTF8
Codec ID/Info : UTF-8 Plain Text
Duration : 45 min 29 s
Bit rate : 35 b/s
Frame rate : 0.147 FPS
Count of elements : 402
Stream size : 11.8 KiB (0%)
Language : Italian
Default : No
Forced : No

Text #22
ID : 24
Format : UTF-8
Codec ID : S_TEXT/UTF8
Codec ID/Info : UTF-8 Plain Text
Duration : 45 min 28 s
Bit rate : 33 b/s
Frame rate : 0.151 FPS
Count of elements : 413
Stream size : 11.2 KiB (0%)
Language : Japanese
Default : No
Forced : No

Text #23
ID : 25
Format : UTF-8
Codec ID : S_TEXT/UTF8
Codec ID/Info : UTF-8 Plain Text
Duration : 45 min 29 s
Bit rate : 85 b/s
Frame rate : 0.150 FPS
Count of elements : 410
Stream size : 28.6 KiB (0%)
Language : Kannada
Default : No
Forced : No

Text #24
ID : 26
Format : UTF-8
Codec ID : S_TEXT/UTF8
Codec ID/Info : UTF-8 Plain Text
Duration : 45 min 29 s
Bit rate : 37 b/s
Frame rate : 0.150 FPS
Count of elements : 410
Stream size : 12.6 KiB (0%)
Language : Korean
Default : No
Forced : No

Text #25
ID : 27
Format : UTF-8
Codec ID : S_TEXT/UTF8
Codec ID/Info : UTF-8 Plain Text
Duration : 45 min 29 s
Bit rate : 102 b/s
Frame rate : 0.145 FPS
Count of elements : 395
Stream size : 34.1 KiB (0%)
Language : Malayalam
Default : No
Forced : No

Text #26
ID : 28
Format : UTF-8
Codec ID : S_TEXT/UTF8
Codec ID/Info : UTF-8 Plain Text
Duration : 45 min 29 s
Bit rate : 35 b/s
Frame rate : 0.144 FPS
Count of elements : 394
Stream size : 11.7 KiB (0%)
Language : Malay
Default : No
Forced : No

Text #27
ID : 29
Format : UTF-8
Codec ID : S_TEXT/UTF8
Codec ID/Info : UTF-8 Plain Text
Duration : 45 min 29 s
Bit rate : 32 b/s
Frame rate : 0.149 FPS
Count of elements : 406
Stream size : 11.0 KiB (0%)
Language : Norwegian Bokmal
Default : No
Forced : No

Text #28
ID : 30
Format : UTF-8
Codec ID : S_TEXT/UTF8
Codec ID/Info : UTF-8 Plain Text
Duration : 45 min 29 s
Bit rate : 31 b/s
Frame rate : 0.141 FPS
Count of elements : 385
Stream size : 10.5 KiB (0%)
Language : Dutch
Default : No
Forced : No

Text #29
ID : 31
Format : UTF-8
Codec ID : S_TEXT/UTF8
Codec ID/Info : UTF-8 Plain Text
Duration : 45 min 29 s
Bit rate : 30 b/s
Frame rate : 0.145 FPS
Count of elements : 395
Stream size : 10.0 KiB (0%)
Language : Polish
Default : No
Forced : No

Text #30
ID : 32
Format : UTF-8
Codec ID : S_TEXT/UTF8
Codec ID/Info : UTF-8 Plain Text
Duration : 45 min 29 s
Bit rate : 34 b/s
Frame rate : 0.149 FPS
Count of elements : 407
Stream size : 11.3 KiB (0%)
Title : Portuguese (Brazil)
Language : Portuguese
Default : No
Forced : No

Text #31
ID : 33
Format : UTF-8
Codec ID : S_TEXT/UTF8
Codec ID/Info : UTF-8 Plain Text
Duration : 45 min 29 s
Bit rate : 33 b/s
Frame rate : 0.148 FPS
Count of elements : 405
Stream size : 11.0 KiB (0%)
Title : Portuguese (Portugal)
Language : Portuguese
Default : No
Forced : No

Text #32
ID : 34
Format : UTF-8
Codec ID : S_TEXT/UTF8
Codec ID/Info : UTF-8 Plain Text
Duration : 45 min 29 s
Bit rate : 37 b/s
Frame rate : 0.145 FPS
Count of elements : 397
Stream size : 12.4 KiB (0%)
Language : Romanian
Default : No
Forced : No

Text #33
ID : 35
Format : UTF-8
Codec ID : S_TEXT/UTF8
Codec ID/Info : UTF-8 Plain Text
Duration : 45 min 29 s
Bit rate : 60 b/s
Frame rate : 0.150 FPS
Count of elements : 409
Stream size : 20.1 KiB (0%)
Language : Russian
Default : No
Forced : No

Text #34
ID : 36
Format : UTF-8
Codec ID : S_TEXT/UTF8
Codec ID/Info : UTF-8 Plain Text
Duration : 45 min 29 s
Bit rate : 35 b/s
Frame rate : 0.146 FPS
Count of elements : 399
Stream size : 11.7 KiB (0%)
Language : Swedish
Default : No
Forced : No

Text #35
ID : 37
Format : UTF-8
Codec ID : S_TEXT/UTF8
Codec ID/Info : UTF-8 Plain Text
Duration : 45 min 29 s
Bit rate : 99 b/s
Frame rate : 0.150 FPS
Count of elements : 410
Stream size : 33.1 KiB (0%)
Language : Tamil
Default : No
Forced : No

Text #36
ID : 38
Format : UTF-8
Codec ID : S_TEXT/UTF8
Codec ID/Info : UTF-8 Plain Text
Duration : 45 min 29 s
Bit rate : 90 b/s
Frame rate : 0.150 FPS
Count of elements : 410
Stream size : 30.1 KiB (0%)
Language : Telugu
Default : No
Forced : No

Text #37
ID : 39
Format : UTF-8
Codec ID : S_TEXT/UTF8
Codec ID/Info : UTF-8 Plain Text
Duration : 45 min 29 s
Bit rate : 89 b/s
Frame rate : 0.150 FPS
Count of elements : 410
Stream size : 29.9 KiB (0%)
Language : Thai
Default : No
Forced : No

Text #38
ID : 40
Format : UTF-8
Codec ID : S_TEXT/UTF8
Codec ID/Info : UTF-8 Plain Text
Duration : 45 min 29 s
Bit rate : 36 b/s
Frame rate : 0.149 FPS
Count of elements : 408
Stream size : 12.2 KiB (0%)
Language : Turkish
Default : No
Forced : No

Text #39
ID : 41
Format : UTF-8
Codec ID : S_TEXT/UTF8
Codec ID/Info : UTF-8 Plain Text
Duration : 45 min 29 s
Bit rate : 57 b/s
Frame rate : 0.150 FPS
Count of elements : 410
Stream size : 19.0 KiB (0%)
Language : Ukrainian
Default : No
Forced : No

Text #40
ID : 42
Format : UTF-8
Codec ID : S_TEXT/UTF8
Codec ID/Info : UTF-8 Plain Text
Duration : 45 min 29 s
Bit rate : 45 b/s
Frame rate : 0.150 FPS
Count of elements : 409
Stream size : 15.2 KiB (0%)
Language : Vietnamese
Default : No
Forced : No

Text #41
ID : 43
Format : UTF-8
Codec ID : S_TEXT/UTF8
Codec ID/Info : UTF-8 Plain Text
Duration : 45 min 29 s
Bit rate : 33 b/s
Frame rate : 0.150 FPS
Count of elements : 410
Stream size : 11.2 KiB (0%)
Title : Chinese (Simplified)
Language : Chinese
Default : No
Forced : No

Text #42
ID : 44
Format : UTF-8
Codec ID : S_TEXT/UTF8
Codec ID/Info : UTF-8 Plain Text
Duration : 45 min 29 s
Bit rate : 30 b/s
Frame rate : 0.150 FPS
Count of elements : 410
Stream size : 10.3 KiB (0%)
Title : Chinese (Traditional)
Language : Chinese
Default : No
Forced : No

Menu
00:00:00.000 : en:Studio Logo
00:00:06.000 : en:Previously On
00:01:08.000 : en:Studio Logo
00:01:19.000 : en:Scene 4
00:08:18.000 : en:Title Sequence
00:08:21.000 : en:Scene 6
00:09:29.000 : en:Scene 7
00:11:32.000 : en:Scene 8
00:14:26.000 : en:Scene 9
00:17:54.000 : en:Scene 10
00:20:04.000 : en:Scene 11
00:23:00.000 : en:Scene 12
00:24:26.000 : en:Scene 13
00:25:23.000 : en:Scene 14
00:29:23.000 : en:Scene 15
00:31:04.000 : en:Scene 16
00:32:16.000 : en:Scene 17
00:36:13.000 : en:Scene 18
00:38:01.000 : en:Scene 19
00:39:40.000 : en:Scene 20
00:42:52.000 : en:End Credits





Fallout S01E04


Fallout S01E04


Fallout S01E04


Fallout S01E04


Fallout S01E04

All episodes