Index
# A B C D E F G H I J K L M N O P Q R S T U V W X Y Z
Tags
Language
Tags
July 2024
Su Mo Tu We Th Fr Sa
30 1 2 3 4 5 6
7 8 9 10 11 12 13
14 15 16 17 18 19 20
21 22 23 24 25 26 27
28 29 30 31 1 2 3

Featured TV Shows


Fallout S01E05

Posted By: Tavaz
1080p (FullHD) / WEB-DL IMDb
Fallout S01E05

Fallout S01E05
WEB-DL | MKV | 1920x800 | English | H264 @ 8266 kbps | E-AC-3 @ 576.0 kbps | 45 min 20 s | 2.80 GiB
Subtitles: English, Suomi, 한국어, Русский, ภาษาไทย, Português, Español, Dansk, Bahasa Indonesia, Bokmål, 中文, Nederlands, 日本語, Ελληνικά, Svenska, Türkçe, Čeština, Українська, Polski, Română, Deutsch, Français, tiếng Việt, Magyar, हिन्दी, Català, עברית, Italiano, العربية
Genre: Comedy


The story of haves and have-nots in a world in which there’s almost nothing left to have. 200 years after the apocalypse, the gentle denizens of luxury fallout shelters are forced to return to the irradiated hellscape their ancestors left behind — and are shocked to discover an incredibly complex, gleefully weird, and highly violent universe waiting for them.

dcaa03c8816f409fb7f159ef19cc437f.mkv (2.8 GB)



General
Unique ID : 19469736883991593579535501476630865614 (0xEA5BC24341A7154BD91725E3A13A6CE)
Complete name : ./dcaa03c8816f409fb7f159ef19cc437f.mkv
Format : Matroska
Format version : Version 4
File size : 2.80 GiB
Duration : 45 min 20 s
Overall bit rate : 8 849 kb/s
Writing application : mkvmerge v81.0 ('Milliontown') 64-bit
Writing library : libebml v1.4.4 + libmatroska v1.7.1

Video
ID : 1
Format : AVC
Format/Info : Advanced Video Codec
Format profile : High@L4
Format settings : CABAC / 4 Ref Frames
Format settings, CABAC : Yes
Format settings, Reference frames : 4 frames
Codec ID : V_MPEG4/ISO/AVC
Duration : 45 min 20 s
Bit rate mode : Constant
Bit rate : 8 267 kb/s
Nominal bit rate : 10 000 kb/s
Width : 1 920 pixels
Height : 800 pixels
Display aspect ratio : 2.40:1
Frame rate mode : Constant
Frame rate : 24.000 FPS
Color space : YUV
Chroma subsampling : 4:2:0
Bit depth : 8 bits
Scan type : Progressive
Bits/(Pixel*Frame) : 0.224
Stream size : 2.62 GiB (93%)
Default : Yes
Forced : No
Color range : Limited
Color primaries : BT.709
Transfer characteristics : BT.709
Matrix coefficients : BT.709

Audio
ID : 2
Format : E-AC-3 JOC
Format/Info : Enhanced AC-3 with Joint Object Coding
Commercial name : Dolby Digital Plus with Dolby Atmos
Codec ID : A_EAC3
Duration : 45 min 20 s
Bit rate mode : Constant
Bit rate : 576 kb/s
Channel(s) : 6 channels
Channel layout : L R C LFE Ls Rs
Sampling rate : 48.0 kHz
Frame rate : 31.250 FPS (1536 SPF)
Compression mode : Lossy
Stream size : 187 MiB (7%)
Language : English
Service kind : Complete Main
Default : Yes
Forced : No
Complexity index : 16
Number of dynamic objects : 15
Bed channel count : 1 channel
Bed channel configuration : LFE

Text #1
ID : 3
Format : UTF-8
Codec ID : S_TEXT/UTF8
Codec ID/Info : UTF-8 Plain Text
Duration : 40 min 27 s
Bit rate : 46 b/s
Frame rate : 0.196 FPS
Count of elements : 475
Stream size : 13.8 KiB (0%)
Language : English
Default : No
Forced : No

Text #2
ID : 4
Format : UTF-8
Codec ID : S_TEXT/UTF8
Codec ID/Info : UTF-8 Plain Text
Duration : 41 min 40 s
Bit rate : 53 b/s
Frame rate : 0.228 FPS
Count of elements : 569
Stream size : 16.5 KiB (0%)
Title : SDH
Language : English
Default : No
Forced : No

Text #3
ID : 5
Format : UTF-8
Codec ID : S_TEXT/UTF8
Codec ID/Info : UTF-8 Plain Text
Duration : 42 min 9 s
Bit rate : 66 b/s
Frame rate : 0.178 FPS
Count of elements : 450
Stream size : 20.5 KiB (0%)
Language : Arabic
Default : No
Forced : No

Text #4
ID : 6
Format : UTF-8
Codec ID : S_TEXT/UTF8
Codec ID/Info : UTF-8 Plain Text
Duration : 42 min 9 s
Bit rate : 35 b/s
Frame rate : 0.176 FPS
Count of elements : 445
Stream size : 11.1 KiB (0%)
Language : Catalan
Default : No
Forced : No

Text #5
ID : 7
Format : UTF-8
Codec ID : S_TEXT/UTF8
Codec ID/Info : UTF-8 Plain Text
Duration : 42 min 9 s
Bit rate : 41 b/s
Frame rate : 0.176 FPS
Count of elements : 444
Stream size : 12.8 KiB (0%)
Language : Czech
Default : No
Forced : No

Text #6
ID : 8
Format : UTF-8
Codec ID : S_TEXT/UTF8
Codec ID/Info : UTF-8 Plain Text
Duration : 42 min 9 s
Bit rate : 37 b/s
Frame rate : 0.176 FPS
Count of elements : 444
Stream size : 11.5 KiB (0%)
Language : Danish
Default : No
Forced : No

Text #7
ID : 9
Format : UTF-8
Codec ID : S_TEXT/UTF8
Codec ID/Info : UTF-8 Plain Text
Duration : 42 min 9 s
Bit rate : 39 b/s
Frame rate : 0.176 FPS
Count of elements : 445
Stream size : 12.3 KiB (0%)
Language : German
Default : No
Forced : No

Text #8
ID : 10
Format : UTF-8
Codec ID : S_TEXT/UTF8
Codec ID/Info : UTF-8 Plain Text
Duration : 42 min 9 s
Bit rate : 72 b/s
Frame rate : 0.176 FPS
Count of elements : 444
Stream size : 22.3 KiB (0%)
Language : Greek
Default : No
Forced : No

Text #9
ID : 11
Format : UTF-8
Codec ID : S_TEXT/UTF8
Codec ID/Info : UTF-8 Plain Text
Duration : 42 min 9 s
Bit rate : 39 b/s
Frame rate : 0.175 FPS
Count of elements : 442
Stream size : 12.1 KiB (0%)
Title : Spanish (Latin America)
Language : Spanish
Default : No
Forced : No

Text #10
ID : 12
Format : UTF-8
Codec ID : S_TEXT/UTF8
Codec ID/Info : UTF-8 Plain Text
Duration : 42 min 9 s
Bit rate : 41 b/s
Frame rate : 0.170 FPS
Count of elements : 431
Stream size : 12.8 KiB (0%)
Title : Spanish (Spain)
Language : Spanish
Default : No
Forced : No

Text #11
ID : 13
Format : UTF-8
Codec ID : S_TEXT/UTF8
Codec ID/Info : UTF-8 Plain Text
Duration : 42 min 9 s
Bit rate : 37 b/s
Frame rate : 0.176 FPS
Count of elements : 445
Stream size : 11.6 KiB (0%)
Language : Basque
Default : No
Forced : No

Text #12
ID : 14
Format : UTF-8
Codec ID : S_TEXT/UTF8
Codec ID/Info : UTF-8 Plain Text
Duration : 42 min 9 s
Bit rate : 38 b/s
Frame rate : 0.176 FPS
Count of elements : 445
Stream size : 11.8 KiB (0%)
Language : Finnish
Default : No
Forced : No

Text #13
ID : 15
Format : UTF-8
Codec ID : S_TEXT/UTF8
Codec ID/Info : UTF-8 Plain Text
Duration : 42 min 9 s
Bit rate : 44 b/s
Frame rate : 0.175 FPS
Count of elements : 443
Stream size : 13.6 KiB (0%)
Language : fil
Default : No
Forced : No

Text #14
ID : 16
Format : UTF-8
Codec ID : S_TEXT/UTF8
Codec ID/Info : UTF-8 Plain Text
Duration : 42 min 9 s
Bit rate : 43 b/s
Frame rate : 0.175 FPS
Count of elements : 443
Stream size : 13.3 KiB (0%)
Title : French (Canada)
Language : French
Default : No
Forced : No

Text #15
ID : 17
Format : UTF-8
Codec ID : S_TEXT/UTF8
Codec ID/Info : UTF-8 Plain Text
Duration : 42 min 9 s
Bit rate : 38 b/s
Frame rate : 0.165 FPS
Count of elements : 417
Stream size : 11.9 KiB (0%)
Title : French (France)
Language : French
Default : No
Forced : No

Text #16
ID : 18
Format : UTF-8
Codec ID : S_TEXT/UTF8
Codec ID/Info : UTF-8 Plain Text
Duration : 42 min 9 s
Bit rate : 36 b/s
Frame rate : 0.176 FPS
Count of elements : 446
Stream size : 11.3 KiB (0%)
Language : Galician
Default : No
Forced : No

Text #17
ID : 19
Format : UTF-8
Codec ID : S_TEXT/UTF8
Codec ID/Info : UTF-8 Plain Text
Duration : 42 min 9 s
Bit rate : 62 b/s
Frame rate : 0.178 FPS
Count of elements : 451
Stream size : 19.3 KiB (0%)
Language : Hebrew
Default : No
Forced : No

Text #18
ID : 20
Format : UTF-8
Codec ID : S_TEXT/UTF8
Codec ID/Info : UTF-8 Plain Text
Duration : 42 min 9 s
Bit rate : 87 b/s
Frame rate : 0.178 FPS
Count of elements : 451
Stream size : 27.0 KiB (0%)
Language : Hindi
Default : No
Forced : No

Text #19
ID : 21
Format : UTF-8
Codec ID : S_TEXT/UTF8
Codec ID/Info : UTF-8 Plain Text
Duration : 42 min 9 s
Bit rate : 41 b/s
Frame rate : 0.176 FPS
Count of elements : 444
Stream size : 12.9 KiB (0%)
Language : Hungarian
Default : No
Forced : No

Text #20
ID : 22
Format : UTF-8
Codec ID : S_TEXT/UTF8
Codec ID/Info : UTF-8 Plain Text
Duration : 42 min 9 s
Bit rate : 40 b/s
Frame rate : 0.177 FPS
Count of elements : 447
Stream size : 12.4 KiB (0%)
Language : Indonesian
Default : No
Forced : No

Text #21
ID : 23
Format : UTF-8
Codec ID : S_TEXT/UTF8
Codec ID/Info : UTF-8 Plain Text
Duration : 42 min 9 s
Bit rate : 39 b/s
Frame rate : 0.170 FPS
Count of elements : 431
Stream size : 12.2 KiB (0%)
Language : Italian
Default : No
Forced : No

Text #22
ID : 24
Format : UTF-8
Codec ID : S_TEXT/UTF8
Codec ID/Info : UTF-8 Plain Text
Duration : 42 min 8 s
Bit rate : 38 b/s
Frame rate : 0.173 FPS
Count of elements : 437
Stream size : 11.9 KiB (0%)
Language : Japanese
Default : No
Forced : No

Text #23
ID : 25
Format : UTF-8
Codec ID : S_TEXT/UTF8
Codec ID/Info : UTF-8 Plain Text
Duration : 42 min 9 s
Bit rate : 96 b/s
Frame rate : 0.178 FPS
Count of elements : 451
Stream size : 29.8 KiB (0%)
Language : Kannada
Default : No
Forced : No

Text #24
ID : 26
Format : UTF-8
Codec ID : S_TEXT/UTF8
Codec ID/Info : UTF-8 Plain Text
Duration : 42 min 9 s
Bit rate : 44 b/s
Frame rate : 0.178 FPS
Count of elements : 450
Stream size : 13.7 KiB (0%)
Language : Korean
Default : No
Forced : No

Text #25
ID : 27
Format : UTF-8
Codec ID : S_TEXT/UTF8
Codec ID/Info : UTF-8 Plain Text
Duration : 42 min 9 s
Bit rate : 121 b/s
Frame rate : 0.177 FPS
Count of elements : 448
Stream size : 37.6 KiB (0%)
Language : Malayalam
Default : No
Forced : No

Text #26
ID : 28
Format : UTF-8
Codec ID : S_TEXT/UTF8
Codec ID/Info : UTF-8 Plain Text
Duration : 42 min 9 s
Bit rate : 40 b/s
Frame rate : 0.175 FPS
Count of elements : 442
Stream size : 12.6 KiB (0%)
Language : Malay
Default : No
Forced : No

Text #27
ID : 29
Format : UTF-8
Codec ID : S_TEXT/UTF8
Codec ID/Info : UTF-8 Plain Text
Duration : 42 min 9 s
Bit rate : 37 b/s
Frame rate : 0.176 FPS
Count of elements : 446
Stream size : 11.5 KiB (0%)
Language : Norwegian Bokmal
Default : No
Forced : No

Text #28
ID : 30
Format : UTF-8
Codec ID : S_TEXT/UTF8
Codec ID/Info : UTF-8 Plain Text
Duration : 42 min 9 s
Bit rate : 35 b/s
Frame rate : 0.168 FPS
Count of elements : 425
Stream size : 11.0 KiB (0%)
Language : Dutch
Default : No
Forced : No

Text #29
ID : 31
Format : UTF-8
Codec ID : S_TEXT/UTF8
Codec ID/Info : UTF-8 Plain Text
Duration : 42 min 9 s
Bit rate : 34 b/s
Frame rate : 0.174 FPS
Count of elements : 440
Stream size : 10.6 KiB (0%)
Language : Polish
Default : No
Forced : No

Text #30
ID : 32
Format : UTF-8
Codec ID : S_TEXT/UTF8
Codec ID/Info : UTF-8 Plain Text
Duration : 42 min 9 s
Bit rate : 37 b/s
Frame rate : 0.176 FPS
Count of elements : 445
Stream size : 11.7 KiB (0%)
Title : Portuguese (Brazil)
Language : Portuguese
Default : No
Forced : No

Text #31
ID : 33
Format : UTF-8
Codec ID : S_TEXT/UTF8
Codec ID/Info : UTF-8 Plain Text
Duration : 42 min 9 s
Bit rate : 37 b/s
Frame rate : 0.174 FPS
Count of elements : 441
Stream size : 11.7 KiB (0%)
Title : Portuguese (Portugal)
Language : Portuguese
Default : No
Forced : No

Text #32
ID : 34
Format : UTF-8
Codec ID : S_TEXT/UTF8
Codec ID/Info : UTF-8 Plain Text
Duration : 42 min 9 s
Bit rate : 43 b/s
Frame rate : 0.176 FPS
Count of elements : 446
Stream size : 13.5 KiB (0%)
Language : Romanian
Default : No
Forced : No

Text #33
ID : 35
Format : UTF-8
Codec ID : S_TEXT/UTF8
Codec ID/Info : UTF-8 Plain Text
Duration : 42 min 9 s
Bit rate : 67 b/s
Frame rate : 0.178 FPS
Count of elements : 449
Stream size : 20.9 KiB (0%)
Language : Russian
Default : No
Forced : No

Text #34
ID : 36
Format : UTF-8
Codec ID : S_TEXT/UTF8
Codec ID/Info : UTF-8 Plain Text
Duration : 42 min 9 s
Bit rate : 41 b/s
Frame rate : 0.176 FPS
Count of elements : 444
Stream size : 12.7 KiB (0%)
Language : Swedish
Default : No
Forced : No

Text #35
ID : 37
Format : UTF-8
Codec ID : S_TEXT/UTF8
Codec ID/Info : UTF-8 Plain Text
Duration : 42 min 9 s
Bit rate : 113 b/s
Frame rate : 0.178 FPS
Count of elements : 451
Stream size : 35.0 KiB (0%)
Language : Tamil
Default : No
Forced : No

Text #36
ID : 38
Format : UTF-8
Codec ID : S_TEXT/UTF8
Codec ID/Info : UTF-8 Plain Text
Duration : 42 min 9 s
Bit rate : 103 b/s
Frame rate : 0.178 FPS
Count of elements : 451
Stream size : 31.9 KiB (0%)
Language : Telugu
Default : No
Forced : No

Text #37
ID : 39
Format : UTF-8
Codec ID : S_TEXT/UTF8
Codec ID/Info : UTF-8 Plain Text
Duration : 42 min 9 s
Bit rate : 101 b/s
Frame rate : 0.178 FPS
Count of elements : 451
Stream size : 31.4 KiB (0%)
Language : Thai
Default : No
Forced : No

Text #38
ID : 40
Format : UTF-8
Codec ID : S_TEXT/UTF8
Codec ID/Info : UTF-8 Plain Text
Duration : 42 min 9 s
Bit rate : 41 b/s
Frame rate : 0.177 FPS
Count of elements : 447
Stream size : 12.9 KiB (0%)
Language : Turkish
Default : No
Forced : No

Text #39
ID : 41
Format : UTF-8
Codec ID : S_TEXT/UTF8
Codec ID/Info : UTF-8 Plain Text
Duration : 42 min 9 s
Bit rate : 63 b/s
Frame rate : 0.178 FPS
Count of elements : 450
Stream size : 19.7 KiB (0%)
Language : Ukrainian
Default : No
Forced : No

Text #40
ID : 42
Format : UTF-8
Codec ID : S_TEXT/UTF8
Codec ID/Info : UTF-8 Plain Text
Duration : 42 min 9 s
Bit rate : 52 b/s
Frame rate : 0.177 FPS
Count of elements : 448
Stream size : 16.3 KiB (0%)
Language : Vietnamese
Default : No
Forced : No

Text #41
ID : 43
Format : UTF-8
Codec ID : S_TEXT/UTF8
Codec ID/Info : UTF-8 Plain Text
Duration : 42 min 9 s
Bit rate : 38 b/s
Frame rate : 0.178 FPS
Count of elements : 450
Stream size : 12.0 KiB (0%)
Title : Chinese (Simplified)
Language : Chinese
Default : No
Forced : No

Text #42
ID : 44
Format : UTF-8
Codec ID : S_TEXT/UTF8
Codec ID/Info : UTF-8 Plain Text
Duration : 42 min 9 s
Bit rate : 37 b/s
Frame rate : 0.178 FPS
Count of elements : 450
Stream size : 11.5 KiB (0%)
Title : Chinese (Traditional)
Language : Chinese
Default : No
Forced : No

Menu
00:00:00.000 : :Studio Logo
00:00:06.000 : :Previously On
00:01:08.000 : :Studio Logo
00:01:24.000 : :Scene 4
00:05:38.000 : :Title Sequence
00:05:46.000 : :Scene 6
00:09:57.000 : :Scene 7
00:11:57.000 : :Scene 8
00:14:53.000 : :Scene 9
00:16:41.000 : :Scene 10
00:18:38.000 : :Scene 11
00:19:17.000 : :Scene 12
00:20:18.000 : :Scene 13
00:24:57.000 : :Scene 14
00:25:54.000 : :Scene 15
00:27:56.000 : :Scene 16
00:28:21.000 : :Scene 17
00:33:24.000 : :Scene 18
00:34:36.000 : :Scene 19
00:36:54.000 : :Scene 20
00:38:19.000 : :Scene 21
00:39:38.000 : :End Credits





Fallout S01E05


Fallout S01E05


Fallout S01E05


Fallout S01E05


Fallout S01E05

All episodes