Index
# A B C D E F G H I J K L M N O P Q R S T U V W X Y Z
Tags
Language
Tags
July 2024
Su Mo Tu We Th Fr Sa
30 1 2 3 4 5 6
7 8 9 10 11 12 13
14 15 16 17 18 19 20
21 22 23 24 25 26 27
28 29 30 31 1 2 3

Featured TV Shows


Fallout S01E06

Posted By: Tavaz
1080p (FullHD) / WEB-DL IMDb
Fallout S01E06

Fallout S01E06
WEB-DL | MKV | 1920x1080 | English | H264 @ 8477 kbps | E-AC-3 @ 576.0 kbps | 1 h 0 min | 3.84 GiB
Subtitles: Català, עברית, Dansk, Español, ภาษาไทย, हिन्दी, English, Türkçe, 中文, العربية, Ελληνικά, Svenska, Čeština, Русский, Українська, Română, Italiano, Bokmål, 日本語, Deutsch, Français, Polski, Português, Nederlands, tiếng Việt, Bahasa Indonesia, Suomi, Magyar, 한국어
Genre: Comedy


The story of haves and have-nots in a world in which there’s almost nothing left to have. 200 years after the apocalypse, the gentle denizens of luxury fallout shelters are forced to return to the irradiated hellscape their ancestors left behind — and are shocked to discover an incredibly complex, gleefully weird, and highly violent universe waiting for them.

000d4ef3357d4bf99f2f3e9ba2c48c69.mkv (3.8 GB)



General
Unique ID : 309510548606179146279685823158668247455 (0xE8D99038C862E988E561412D9F64419F)
Complete name : ./000d4ef3357d4bf99f2f3e9ba2c48c69.mkv
Format : Matroska
Format version : Version 4
File size : 3.84 GiB
Duration : 1 h 0 min
Overall bit rate : 9 061 kb/s
Writing application : mkvmerge v81.0 ('Milliontown') 64-bit
Writing library : libebml v1.4.4 + libmatroska v1.7.1

Video
ID : 1
Format : AVC
Format/Info : Advanced Video Codec
Format profile : High@L4
Format settings : CABAC / 4 Ref Frames
Format settings, CABAC : Yes
Format settings, Reference frames : 4 frames
Codec ID : V_MPEG4/ISO/AVC
Duration : 1 h 0 min
Bit rate mode : Constant
Bit rate : 8 477 kb/s
Nominal bit rate : 10 000 kb/s
Width : 1 920 pixels
Height : 1 080 pixels
Display aspect ratio : 16:9
Frame rate mode : Constant
Frame rate : 24.000 FPS
Color space : YUV
Chroma subsampling : 4:2:0
Bit depth : 8 bits
Scan type : Progressive
Bits/(Pixel*Frame) : 0.170
Stream size : 3.59 GiB (94%)
Default : Yes
Forced : No
Color range : Limited
Color primaries : BT.709
Transfer characteristics : BT.709
Matrix coefficients : BT.709

Audio
ID : 2
Format : E-AC-3 JOC
Format/Info : Enhanced AC-3 with Joint Object Coding
Commercial name : Dolby Digital Plus with Dolby Atmos
Codec ID : A_EAC3
Duration : 1 h 0 min
Bit rate mode : Constant
Bit rate : 576 kb/s
Channel(s) : 6 channels
Channel layout : L R C LFE Ls Rs
Sampling rate : 48.0 kHz
Frame rate : 31.250 FPS (1536 SPF)
Compression mode : Lossy
Stream size : 250 MiB (6%)
Language : English
Service kind : Complete Main
Default : Yes
Forced : No
Complexity index : 16
Number of dynamic objects : 15
Bed channel count : 1 channel
Bed channel configuration : LFE

Text #1
ID : 3
Format : UTF-8
Codec ID : S_TEXT/UTF8
Codec ID/Info : UTF-8 Plain Text
Duration : 56 min 32 s
Bit rate : 65 b/s
Frame rate : 0.236 FPS
Count of elements : 800
Stream size : 27.2 KiB (0%)
Language : English
Default : No
Forced : No

Text #2
ID : 4
Format : UTF-8
Codec ID : S_TEXT/UTF8
Codec ID/Info : UTF-8 Plain Text
Duration : 57 min 11 s
Bit rate : 71 b/s
Frame rate : 0.261 FPS
Count of elements : 896
Stream size : 29.9 KiB (0%)
Title : SDH
Language : English
Default : No
Forced : No

Text #3
ID : 5
Format : UTF-8
Codec ID : S_TEXT/UTF8
Codec ID/Info : UTF-8 Plain Text
Duration : 57 min 29 s
Bit rate : 94 b/s
Frame rate : 0.207 FPS
Count of elements : 714
Stream size : 40.0 KiB (0%)
Language : Arabic
Default : No
Forced : No

Text #4
ID : 6
Format : UTF-8
Codec ID : S_TEXT/UTF8
Codec ID/Info : UTF-8 Plain Text
Duration : 57 min 29 s
Bit rate : 49 b/s
Frame rate : 0.206 FPS
Count of elements : 711
Stream size : 20.7 KiB (0%)
Language : Catalan
Default : No
Forced : No

Text #5
ID : 7
Format : UTF-8
Codec ID : S_TEXT/UTF8
Codec ID/Info : UTF-8 Plain Text
Duration : 57 min 29 s
Bit rate : 57 b/s
Frame rate : 0.205 FPS
Count of elements : 707
Stream size : 24.2 KiB (0%)
Language : Czech
Default : No
Forced : No

Text #6
ID : 8
Format : UTF-8
Codec ID : S_TEXT/UTF8
Codec ID/Info : UTF-8 Plain Text
Duration : 57 min 29 s
Bit rate : 51 b/s
Frame rate : 0.206 FPS
Count of elements : 709
Stream size : 21.7 KiB (0%)
Language : Danish
Default : No
Forced : No

Text #7
ID : 9
Format : UTF-8
Codec ID : S_TEXT/UTF8
Codec ID/Info : UTF-8 Plain Text
Duration : 57 min 29 s
Bit rate : 54 b/s
Frame rate : 0.206 FPS
Count of elements : 711
Stream size : 22.9 KiB (0%)
Language : German
Default : No
Forced : No

Text #8
ID : 10
Format : UTF-8
Codec ID : S_TEXT/UTF8
Codec ID/Info : UTF-8 Plain Text
Duration : 57 min 29 s
Bit rate : 102 b/s
Frame rate : 0.207 FPS
Count of elements : 713
Stream size : 43.2 KiB (0%)
Language : Greek
Default : No
Forced : No

Text #9
ID : 11
Format : UTF-8
Codec ID : S_TEXT/UTF8
Codec ID/Info : UTF-8 Plain Text
Duration : 57 min 29 s
Bit rate : 54 b/s
Frame rate : 0.205 FPS
Count of elements : 706
Stream size : 22.8 KiB (0%)
Title : Spanish (Latin America)
Language : Spanish
Default : No
Forced : No

Text #10
ID : 12
Format : UTF-8
Codec ID : S_TEXT/UTF8
Codec ID/Info : UTF-8 Plain Text
Duration : 57 min 29 s
Bit rate : 56 b/s
Frame rate : 0.189 FPS
Count of elements : 651
Stream size : 23.8 KiB (0%)
Title : Spanish (Spain)
Language : Spanish
Default : No
Forced : No

Text #11
ID : 13
Format : UTF-8
Codec ID : S_TEXT/UTF8
Codec ID/Info : UTF-8 Plain Text
Duration : 57 min 29 s
Bit rate : 50 b/s
Frame rate : 0.206 FPS
Count of elements : 709
Stream size : 21.2 KiB (0%)
Language : Basque
Default : No
Forced : No

Text #12
ID : 14
Format : UTF-8
Codec ID : S_TEXT/UTF8
Codec ID/Info : UTF-8 Plain Text
Duration : 57 min 29 s
Bit rate : 51 b/s
Frame rate : 0.205 FPS
Count of elements : 708
Stream size : 21.9 KiB (0%)
Language : Finnish
Default : No
Forced : No

Text #13
ID : 15
Format : UTF-8
Codec ID : S_TEXT/UTF8
Codec ID/Info : UTF-8 Plain Text
Duration : 57 min 29 s
Bit rate : 60 b/s
Frame rate : 0.204 FPS
Count of elements : 705
Stream size : 25.3 KiB (0%)
Language : fil
Default : No
Forced : No

Text #14
ID : 16
Format : UTF-8
Codec ID : S_TEXT/UTF8
Codec ID/Info : UTF-8 Plain Text
Duration : 57 min 29 s
Bit rate : 59 b/s
Frame rate : 0.205 FPS
Count of elements : 708
Stream size : 25.0 KiB (0%)
Title : French (Canada)
Language : French
Default : No
Forced : No

Text #15
ID : 17
Format : UTF-8
Codec ID : S_TEXT/UTF8
Codec ID/Info : UTF-8 Plain Text
Duration : 57 min 29 s
Bit rate : 50 b/s
Frame rate : 0.204 FPS
Count of elements : 703
Stream size : 21.4 KiB (0%)
Title : French (France)
Language : French
Default : No
Forced : No

Text #16
ID : 18
Format : UTF-8
Codec ID : S_TEXT/UTF8
Codec ID/Info : UTF-8 Plain Text
Duration : 57 min 29 s
Bit rate : 50 b/s
Frame rate : 0.205 FPS
Count of elements : 708
Stream size : 21.1 KiB (0%)
Language : Galician
Default : No
Forced : No

Text #17
ID : 19
Format : UTF-8
Codec ID : S_TEXT/UTF8
Codec ID/Info : UTF-8 Plain Text
Duration : 57 min 29 s
Bit rate : 85 b/s
Frame rate : 0.207 FPS
Count of elements : 714
Stream size : 36.1 KiB (0%)
Language : Hebrew
Default : No
Forced : No

Text #18
ID : 20
Format : UTF-8
Codec ID : S_TEXT/UTF8
Codec ID/Info : UTF-8 Plain Text
Duration : 57 min 29 s
Bit rate : 121 b/s
Frame rate : 0.206 FPS
Count of elements : 712
Stream size : 51.1 KiB (0%)
Language : Hindi
Default : No
Forced : No

Text #19
ID : 21
Format : UTF-8
Codec ID : S_TEXT/UTF8
Codec ID/Info : UTF-8 Plain Text
Duration : 57 min 29 s
Bit rate : 57 b/s
Frame rate : 0.206 FPS
Count of elements : 711
Stream size : 24.2 KiB (0%)
Language : Hungarian
Default : No
Forced : No

Text #20
ID : 22
Format : UTF-8
Codec ID : S_TEXT/UTF8
Codec ID/Info : UTF-8 Plain Text
Duration : 57 min 29 s
Bit rate : 53 b/s
Frame rate : 0.206 FPS
Count of elements : 709
Stream size : 22.7 KiB (0%)
Language : Indonesian
Default : No
Forced : No

Text #21
ID : 23
Format : UTF-8
Codec ID : S_TEXT/UTF8
Codec ID/Info : UTF-8 Plain Text
Duration : 57 min 29 s
Bit rate : 55 b/s
Frame rate : 0.204 FPS
Count of elements : 704
Stream size : 23.2 KiB (0%)
Language : Italian
Default : No
Forced : No

Text #22
ID : 24
Format : UTF-8
Codec ID : S_TEXT/UTF8
Codec ID/Info : UTF-8 Plain Text
Duration : 57 min 29 s
Bit rate : 47 b/s
Frame rate : 0.193 FPS
Count of elements : 666
Stream size : 20.1 KiB (0%)
Language : Japanese
Default : No
Forced : No

Text #23
ID : 25
Format : UTF-8
Codec ID : S_TEXT/UTF8
Codec ID/Info : UTF-8 Plain Text
Duration : 57 min 29 s
Bit rate : 129 b/s
Frame rate : 0.207 FPS
Count of elements : 714
Stream size : 54.5 KiB (0%)
Language : Kannada
Default : No
Forced : No

Text #24
ID : 26
Format : UTF-8
Codec ID : S_TEXT/UTF8
Codec ID/Info : UTF-8 Plain Text
Duration : 57 min 29 s
Bit rate : 62 b/s
Frame rate : 0.207 FPS
Count of elements : 714
Stream size : 26.2 KiB (0%)
Language : Korean
Default : No
Forced : No

Text #25
ID : 27
Format : UTF-8
Codec ID : S_TEXT/UTF8
Codec ID/Info : UTF-8 Plain Text
Duration : 57 min 29 s
Bit rate : 170 b/s
Frame rate : 0.206 FPS
Count of elements : 709
Stream size : 71.9 KiB (0%)
Language : Malayalam
Default : No
Forced : No

Text #26
ID : 28
Format : UTF-8
Codec ID : S_TEXT/UTF8
Codec ID/Info : UTF-8 Plain Text
Duration : 57 min 29 s
Bit rate : 55 b/s
Frame rate : 0.205 FPS
Count of elements : 707
Stream size : 23.5 KiB (0%)
Language : Malay
Default : No
Forced : No

Text #27
ID : 29
Format : UTF-8
Codec ID : S_TEXT/UTF8
Codec ID/Info : UTF-8 Plain Text
Duration : 57 min 29 s
Bit rate : 51 b/s
Frame rate : 0.206 FPS
Count of elements : 711
Stream size : 21.8 KiB (0%)
Language : Norwegian Bokmal
Default : No
Forced : No

Text #28
ID : 30
Format : UTF-8
Codec ID : S_TEXT/UTF8
Codec ID/Info : UTF-8 Plain Text
Duration : 57 min 29 s
Bit rate : 49 b/s
Frame rate : 0.201 FPS
Count of elements : 694
Stream size : 20.8 KiB (0%)
Language : Dutch
Default : No
Forced : No

Text #29
ID : 31
Format : UTF-8
Codec ID : S_TEXT/UTF8
Codec ID/Info : UTF-8 Plain Text
Duration : 57 min 29 s
Bit rate : 46 b/s
Frame rate : 0.205 FPS
Count of elements : 708
Stream size : 19.4 KiB (0%)
Language : Polish
Default : No
Forced : No

Text #30
ID : 32
Format : UTF-8
Codec ID : S_TEXT/UTF8
Codec ID/Info : UTF-8 Plain Text
Duration : 57 min 29 s
Bit rate : 53 b/s
Frame rate : 0.206 FPS
Count of elements : 709
Stream size : 22.5 KiB (0%)
Title : Portuguese (Brazil)
Language : Portuguese
Default : No
Forced : No

Text #31
ID : 33
Format : UTF-8
Codec ID : S_TEXT/UTF8
Codec ID/Info : UTF-8 Plain Text
Duration : 57 min 29 s
Bit rate : 52 b/s
Frame rate : 0.204 FPS
Count of elements : 705
Stream size : 22.1 KiB (0%)
Title : Portuguese (Portugal)
Language : Portuguese
Default : No
Forced : No

Text #32
ID : 34
Format : UTF-8
Codec ID : S_TEXT/UTF8
Codec ID/Info : UTF-8 Plain Text
Duration : 57 min 29 s
Bit rate : 60 b/s
Frame rate : 0.206 FPS
Count of elements : 712
Stream size : 25.5 KiB (0%)
Language : Romanian
Default : No
Forced : No

Text #33
ID : 35
Format : UTF-8
Codec ID : S_TEXT/UTF8
Codec ID/Info : UTF-8 Plain Text
Duration : 57 min 29 s
Bit rate : 95 b/s
Frame rate : 0.207 FPS
Count of elements : 713
Stream size : 40.0 KiB (0%)
Language : Russian
Default : No
Forced : No

Text #34
ID : 36
Format : UTF-8
Codec ID : S_TEXT/UTF8
Codec ID/Info : UTF-8 Plain Text
Duration : 57 min 29 s
Bit rate : 55 b/s
Frame rate : 0.207 FPS
Count of elements : 713
Stream size : 23.4 KiB (0%)
Language : Swedish
Default : No
Forced : No

Text #35
ID : 37
Format : UTF-8
Codec ID : S_TEXT/UTF8
Codec ID/Info : UTF-8 Plain Text
Duration : 57 min 29 s
Bit rate : 153 b/s
Frame rate : 0.207 FPS
Count of elements : 714
Stream size : 64.5 KiB (0%)
Language : Tamil
Default : No
Forced : No

Text #36
ID : 38
Format : UTF-8
Codec ID : S_TEXT/UTF8
Codec ID/Info : UTF-8 Plain Text
Duration : 57 min 29 s
Bit rate : 142 b/s
Frame rate : 0.207 FPS
Count of elements : 714
Stream size : 60.2 KiB (0%)
Language : Telugu
Default : No
Forced : No

Text #37
ID : 39
Format : UTF-8
Codec ID : S_TEXT/UTF8
Codec ID/Info : UTF-8 Plain Text
Duration : 57 min 29 s
Bit rate : 143 b/s
Frame rate : 0.206 FPS
Count of elements : 711
Stream size : 60.3 KiB (0%)
Language : Thai
Default : No
Forced : No

Text #38
ID : 40
Format : UTF-8
Codec ID : S_TEXT/UTF8
Codec ID/Info : UTF-8 Plain Text
Duration : 57 min 29 s
Bit rate : 56 b/s
Frame rate : 0.206 FPS
Count of elements : 711
Stream size : 23.7 KiB (0%)
Language : Turkish
Default : No
Forced : No

Text #39
ID : 41
Format : UTF-8
Codec ID : S_TEXT/UTF8
Codec ID/Info : UTF-8 Plain Text
Duration : 57 min 29 s
Bit rate : 88 b/s
Frame rate : 0.207 FPS
Count of elements : 715
Stream size : 37.1 KiB (0%)
Language : Ukrainian
Default : No
Forced : No

Text #40
ID : 42
Format : UTF-8
Codec ID : S_TEXT/UTF8
Codec ID/Info : UTF-8 Plain Text
Duration : 57 min 29 s
Bit rate : 71 b/s
Frame rate : 0.206 FPS
Count of elements : 712
Stream size : 30.3 KiB (0%)
Language : Vietnamese
Default : No
Forced : No

Text #41
ID : 43
Format : UTF-8
Codec ID : S_TEXT/UTF8
Codec ID/Info : UTF-8 Plain Text
Duration : 57 min 29 s
Bit rate : 52 b/s
Frame rate : 0.206 FPS
Count of elements : 712
Stream size : 22.3 KiB (0%)
Title : Chinese (Simplified)
Language : Chinese
Default : No
Forced : No

Text #42
ID : 44
Format : UTF-8
Codec ID : S_TEXT/UTF8
Codec ID/Info : UTF-8 Plain Text
Duration : 57 min 29 s
Bit rate : 50 b/s
Frame rate : 0.206 FPS
Count of elements : 711
Stream size : 21.5 KiB (0%)
Title : Chinese (Traditional)
Language : Chinese
Default : No
Forced : No

Menu
00:00:00.000 : :Studio Logo
00:00:06.000 : :Previously On
00:01:06.000 : :Studio Logo
00:01:17.000 : :Scene 4
00:01:26.000 : :Scene 5
00:04:01.000 : :Scene 6
00:05:50.000 : :Scene 7
00:07:27.000 : :Scene 8
00:09:54.000 : :Scene 9
00:10:41.000 : :Title Sequence
00:10:52.000 : :Scene 11
00:12:37.000 : :Scene 12
00:14:30.000 : :Scene 13
00:17:38.000 : :Scene 14
00:17:59.000 : :Scene 15
00:20:24.000 : :Scene 16
00:23:11.000 : :Scene 17
00:27:23.000 : :Scene 18
00:30:09.000 : :Scene 19
00:32:50.000 : :Scene 20
00:35:42.000 : :Scene 21
00:37:46.000 : :Scene 22
00:43:13.000 : :Scene 23
00:43:48.000 : :Scene 24
00:44:23.000 : :Scene 25
00:44:43.000 : :Scene 26
00:45:11.000 : :Scene 27
00:45:27.000 : :Scene 28
00:45:58.000 : :Scene 29
00:46:05.000 : :Scene 30
00:46:19.000 : :Scene 31
00:46:22.000 : :Scene 32
00:46:30.000 : :Scene 33
00:46:58.000 : :Scene 34
00:47:01.000 : :Scene 35
00:47:26.000 : :Scene 36
00:48:04.000 : :Scene 37
00:49:31.000 : :Scene 38
00:54:46.000 : :Scene 39
00:54:58.000 : :End Credits





Fallout S01E06


Fallout S01E06


Fallout S01E06


Fallout S01E06


Fallout S01E06

All episodes