Featured TV Shows


Full Metal Panic! Invisible Victory S01E05

Posted By: Tavaz
SD / WEBRip IMDb
Full Metal Panic! Invisible Victory S01E05

Full Metal Panic! Invisible Victory S01E05
WEBRip | MKV | 848x480 | Japanese | H264 @ 899 kbps | AAC @ 96 kbps | 24 min 12 s | 173 MiB
Subtitles: English
Genre: Animation, Drama

Sousuke Sagara, a member of a covert anti-terrorist private military organization known as Mithril, tasked with protecting Kaname Chidori, a spirited Japanese high school girl.

aniurl-fmpiv.s01e05.web.mkv (172.6 MB)



General
Unique ID : 200981046905512167070738145075624716503 (0x97338AA981A25772BAF8D0B8B908A8D7)
Complete name : ./aniurl-fmpiv.s01e05.web.mkv
Format : Matroska
Format version : Version 4 / Version 2
File size : 173 MiB
Duration : 24 min 12 s
Overall bit rate : 997 kb/s
Movie name : Full Metal Panic! Invisible Victory Episode 5 - Watch on Crunchyroll
Encoded date : UTC 2018-05-20 08:45:26
Writing application : mkvmerge v12.0.0 ('Trust / Lust') 64bit
Writing library : libebml v1.3.4 + libmatroska v1.4.5

Video
ID : 1
Format : AVC
Format/Info : Advanced Video Codec
Format profile : Main@L3.1
Format settings : CABAC / 6 Ref Frames
Format settings, CABAC : Yes
Format settings, RefFrames : 6 frames
Codec ID : V_MPEG4/ISO/AVC
Duration : 24 min 10 s
Bit rate : 900 kb/s
Width : 848 pixels
Height : 480 pixels
Display aspect ratio : 16:9
Frame rate mode : Constant
Frame rate : 23.976 (24000/1001) FPS
Color space : YUV
Chroma subsampling : 4:2:0
Bit depth : 8 bits
Scan type : Progressive
Bits/(Pixel*Frame) : 0.092
Stream size : 156 MiB (90%)
Writing library : x264 core 142
Encoding settings : cabac=1 / ref=6 / deblock=1:1:1 / analyse=0x1:0x111 / me=umh / subme=8 / psy=1 / psy_rd=0.40:0.00 / mixed_ref=1 / me_range=16 / chroma_me=1 / trellis=1 / 8x8dct=0 / cqm=0 / deadzone=21,11 / fast_pskip=1 / chroma_qp_offset=-2 / threads=6 / lookahead_threads=1 / sliced_threads=0 / nr=0 / decimate=1 / interlaced=0 / bluray_compat=0 / constrained_intra=0 / bframes=5 / b_pyramid=2 / b_adapt=2 / b_bias=0 / direct=3 / weightb=1 / open_gop=0 / weightp=2 / keyint=48 / keyint_min=24 / scenecut=40 / intra_refresh=0 / rc_lookahead=48 / rc=crf / mbtree=1 / crf=17.0 / qcomp=0.60 / qpmin=0 / qpmax=69 / qpstep=4 / vbv_maxrate=2000 / vbv_bufsize=3000 / crf_max=0.0 / nal_hrd=none / filler=0 / ip_ratio=1.40 / aq=1:0.60
Language : Japanese
Default : Yes
Forced : No

Audio
ID : 2
Format : AAC
Format/Info : Advanced Audio Codec
Format profile : LC
Codec ID : A_AAC-2
Duration : 24 min 10 s
Bit rate : 96.0 kb/s
Channel(s) : 2 channels
Channel positions : Front: L R
Sampling rate : 44.1 kHz
Frame rate : 43.066 FPS (1024 SPF)
Compression mode : Lossy
Delay relative to video : -83 ms
Stream size : 16.6 MiB (10%)
Language : Japanese
Default : Yes
Forced : No

Text
ID : 3
Format : ASS
Codec ID : S_TEXT/ASS
Codec ID/Info : Advanced Sub Station Alpha
Duration : 23 min 47 s
Bit rate : 138 b/s
Count of elements : 392
Compression mode : Lossless
Stream size : 24.2 KiB (0%)
Title : [English (US)]
Language : English
Default : Yes
Forced : No





Full Metal Panic! Invisible Victory S01E05


Full Metal Panic! Invisible Victory S01E05


Full Metal Panic! Invisible Victory S01E05


Full Metal Panic! Invisible Victory S01E05


Full Metal Panic! Invisible Victory S01E05

All episodes