Featured TV Shows


Full Metal Panic! Invisible Victory S01E07

Posted By: Tavaz
720p (HD) / WEBRip IMDb
Full Metal Panic! Invisible Victory S01E07

Full Metal Panic! Invisible Victory S01E07
WEBRip | MKV | 1280x720 | Japanese | H264 @ 2301 kbps | AAC @ 128 kbps | 24 min 14 s | 420 MiB
Subtitles: English
Genre: Animation, Drama

Sousuke Sagara, a member of a covert anti-terrorist private military organization known as Mithril, tasked with protecting Kaname Chidori, a spirited Japanese high school girl.

822cb01f678643878f426b6b0609667b.mkv (420.4 MB)



General
Unique ID : 230214679299223919575569154432260225194 (0xAD31BC04EA16DC9A93FF8EF5EE31B8AA)
Complete name : ./822cb01f678643878f426b6b0609667b.mkv
Format : Matroska
Format version : Version 4 / Version 2
File size : 420 MiB
Duration : 24 min 14 s
Overall bit rate : 2 425 kb/s
Movie name : Full Metal Panic! Invisible Victory Episode 7 - Watch on Crunchyroll
Encoded date : UTC 2018-06-20 18:20:30
Writing application : mkvmerge v12.0.0 ('Trust / Lust') 64bit
Writing library : libebml v1.3.4 + libmatroska v1.4.5

Video
ID : 1
Format : AVC
Format/Info : Advanced Video Codec
Format profile : High@L4
Format settings : CABAC / 6 Ref Frames
Format settings, CABAC : Yes
Format settings, RefFrames : 6 frames
Codec ID : V_MPEG4/ISO/AVC
Duration : 24 min 10 s
Bit rate : 2 302 kb/s
Width : 1 280 pixels
Height : 720 pixels
Display aspect ratio : 16:9
Frame rate mode : Constant
Frame rate : 23.976 (24000/1001) FPS
Color space : YUV
Chroma subsampling : 4:2:0
Bit depth : 8 bits
Scan type : Progressive
Bits/(Pixel*Frame) : 0.104
Stream size : 398 MiB (95%)
Writing library : x264 core 142
Encoding settings : cabac=1 / ref=6 / deblock=1:1:1 / analyse=0x3:0x113 / me=umh / subme=8 / psy=1 / psy_rd=0.40:0.00 / mixed_ref=1 / me_range=16 / chroma_me=1 / trellis=1 / 8x8dct=1 / cqm=0 / deadzone=21,11 / fast_pskip=1 / chroma_qp_offset=-2 / threads=10 / lookahead_threads=1 / sliced_threads=0 / nr=0 / decimate=1 / interlaced=0 / bluray_compat=0 / constrained_intra=0 / bframes=3 / b_pyramid=2 / b_adapt=2 / b_bias=0 / direct=3 / weightb=1 / open_gop=0 / weightp=2 / keyint=48 / keyint_min=24 / scenecut=40 / intra_refresh=0 / rc_lookahead=48 / rc=crf / mbtree=1 / crf=15.0 / qcomp=0.60 / qpmin=0 / qpmax=69 / qpstep=4 / vbv_maxrate=4000 / vbv_bufsize=6000 / crf_max=0.0 / nal_hrd=none / filler=0 / ip_ratio=1.40 / aq=1:0.60
Language : Japanese
Default : Yes
Forced : No

Audio
ID : 2
Format : AAC
Format/Info : Advanced Audio Codec
Format profile : LC
Codec ID : A_AAC-2
Duration : 24 min 10 s
Bit rate : 128 kb/s
Channel(s) : 2 channels
Channel positions : Front: L R
Sampling rate : 44.1 kHz
Frame rate : 43.066 FPS (1024 SPF)
Compression mode : Lossy
Delay relative to video : -83 ms
Stream size : 22.1 MiB (5%)
Language : Japanese
Default : Yes
Forced : No

Text
ID : 3
Format : ASS
Codec ID : S_TEXT/ASS
Codec ID/Info : Advanced Sub Station Alpha
Duration : 24 min 4 s
Bit rate : 88 b/s
Count of elements : 264
Compression mode : Lossless
Stream size : 15.7 KiB (0%)
Title : [English (US)]
Language : English
Default : Yes
Forced : No





Full Metal Panic! Invisible Victory S01E07


Full Metal Panic! Invisible Victory S01E07


Full Metal Panic! Invisible Victory S01E07


Full Metal Panic! Invisible Victory S01E07


Full Metal Panic! Invisible Victory S01E07

All episodes