Featured TV Shows


Genius S02E07

Posted By: Tavaz
Genius S02E07

Genius S02E07
MKV | 1280x720 | Dutch | H264 @ 1289 kbps | AC-3 @ 384 kbps | 50 min 52 s | 621 MiB
Genre: Drama

Anthology series about famous geniuses with the first season charting how Albert Einstein unlocked the mysteries of the atom and the universe, and the second exploring the passionate nature and relentless creative drive of Pablo Picasso.

Genius S02E07 - Pablo Picasso.mkv (621.3 MB)



General
Unique ID : 21315936333787282564159470569797166798 (0x10094CCD4F7B80DD5B0E3D3F2873A6CE)
Complete name : ./Genius S02E07 - Pablo Picasso.mkv
Format : Matroska
Format version : Version 4 / Version 2
File size : 621 MiB
Duration : 50 min 52 s
Overall bit rate : 1 708 kb/s
Encoded date : UTC 2018-05-30T07:40:22Z
Writing application : HandBrake 1.1.0 2018040700
Writing library : Lavf57.7.2

Video
ID : 1
Format : AVC
Format/Info : Advanced Video Codec
Format profile : Main@L3.1
Format settings : CABAC / 4 Ref Frames
Format settings, CABAC : Yes
Format settings, RefFrames : 4 frames
Codec ID : V_MPEG4/ISO/AVC
Duration : 50 min 52 s
Bit rate : 1 290 kb/s
Width : 1 280 pixels
Height : 720 pixels
Display aspect ratio : 2.000
Frame rate mode : Constant
Frame rate : 25.000 FPS
Color space : YUV
Chroma subsampling : 4:2:0
Bit depth : 8 bits
Scan type : Progressive
Bits/(Pixel*Frame) : 0.056
Stream size : 469 MiB (76%)
Writing library : x264 core 155 r2893 b00bcaf
Encoding settings : cabac=1 / ref=2 / deblock=1:0:0 / analyse=0x1:0x111 / me=hex / subme=6 / psy=1 / psy_rd=1.00:0.00 / mixed_ref=1 / me_range=16 / chroma_me=1 / trellis=1 / 8x8dct=0 / cqm=0 / deadzone=21,11 / fast_pskip=1 / chroma_qp_offset=-2 / threads=18 / lookahead_threads=3 / sliced_threads=0 / nr=0 / decimate=1 / interlaced=0 / bluray_compat=0 / constrained_intra=0 / bframes=3 / b_pyramid=2 / b_adapt=1 / b_bias=0 / direct=1 / weightb=1 / open_gop=0 / weightp=1 / keyint=250 / keyint_min=25 / scenecut=40 / intra_refresh=0 / rc_lookahead=30 / rc=crf / mbtree=1 / crf=21.0 / qcomp=0.60 / qpmin=0 / qpmax=69 / qpstep=4 / vbv_maxrate=14000 / vbv_bufsize=14000 / crf_max=0.0 / nal_hrd=none / filler=0 / ip_ratio=1.40 / aq=1:1.00
Default : Yes
Forced : No
Color range : Limited
Color primaries : BT.709
Transfer characteristics : BT.709
Matrix coefficients : BT.709

Audio
ID : 2
Format : AC-3
Format/Info : Audio Coding 3
Format settings, Endianness : Big
Codec ID : A_AC3
Duration : 50 min 52 s
Bit rate mode : Constant
Bit rate : 384 kb/s
Channel(s) : 6 channels
Channel positions : Front: L C R, Side: L R, LFE
Sampling rate : 48.0 kHz
Frame rate : 31.250 FPS (1536 SPF)
Bit depth : 16 bits
Compression mode : Lossy
Delay relative to video : 64 ms
Stream size : 140 MiB (22%)
Title : Surround
Language : Dutch
Service kind : Complete Main
Default : Yes
Forced : No





Genius S02E07


Genius S02E07


Genius S02E07


Genius S02E07


Genius S02E07

All episodes