Featured TV Shows


Genius S02E10

Posted By: Tavaz
Genius S02E10

Genius S02E10
MKV | 1280x720 | Dutch | H264 @ 1532 kbps | AC-3 @ 384 kbps | 50 min 45 s | 710 MiB
Genre: Drama

Anthology series about famous geniuses with the first season charting how Albert Einstein unlocked the mysteries of the atom and the universe, and the second exploring the passionate nature and relentless creative drive of Pablo Picasso.

Genius S02E10 - Pablo Picasso.mkv (709.7 MB)
Genius S02E09 - Pablo Picasso.mkv (634.3 MB)



General
Unique ID : 227444619623532070046051437912485677990 (0xAB1C3D8861C3A2EEB28A3EE1256A4BA6)
Complete name : ./Genius S02E10 - Pablo Picasso.mkv
Format : Matroska
Format version : Version 4 / Version 2
File size : 710 MiB
Duration : 50 min 45 s
Overall bit rate : 1 955 kb/s
Encoded date : UTC 2018-06-18T08:54:29Z
Writing application : HandBrake 1.1.0 2018040700
Writing library : Lavf57.7.2

Video
ID : 1
Format : AVC
Format/Info : Advanced Video Codec
Format profile : Main@L3.1
Format settings : CABAC / 4 Ref Frames
Format settings, CABAC : Yes
Format settings, RefFrames : 4 frames
Codec ID : V_MPEG4/ISO/AVC
Duration : 50 min 45 s
Bit rate : 1 532 kb/s
Width : 1 280 pixels
Height : 720 pixels
Display aspect ratio : 2.000
Frame rate mode : Constant
Frame rate : 25.000 FPS
Color space : YUV
Chroma subsampling : 4:2:0
Bit depth : 8 bits
Scan type : Progressive
Bits/(Pixel*Frame) : 0.066
Stream size : 556 MiB (78%)
Writing library : x264 core 155 r2893 b00bcaf
Encoding settings : cabac=1 / ref=2 / deblock=1:0:0 / analyse=0x1:0x111 / me=hex / subme=6 / psy=1 / psy_rd=1.00:0.00 / mixed_ref=1 / me_range=16 / chroma_me=1 / trellis=1 / 8x8dct=0 / cqm=0 / deadzone=21,11 / fast_pskip=1 / chroma_qp_offset=-2 / threads=18 / lookahead_threads=3 / sliced_threads=0 / nr=0 / decimate=1 / interlaced=0 / bluray_compat=0 / constrained_intra=0 / bframes=3 / b_pyramid=2 / b_adapt=1 / b_bias=0 / direct=1 / weightb=1 / open_gop=0 / weightp=1 / keyint=250 / keyint_min=25 / scenecut=40 / intra_refresh=0 / rc_lookahead=30 / rc=crf / mbtree=1 / crf=21.0 / qcomp=0.60 / qpmin=0 / qpmax=69 / qpstep=4 / vbv_maxrate=14000 / vbv_bufsize=14000 / crf_max=0.0 / nal_hrd=none / filler=0 / ip_ratio=1.40 / aq=1:1.00
Default : Yes
Forced : No
Color range : Limited
Color primaries : BT.709
Transfer characteristics : BT.709
Matrix coefficients : BT.709

Audio
ID : 2
Format : AC-3
Format/Info : Audio Coding 3
Format settings, Endianness : Big
Codec ID : A_AC3
Duration : 50 min 45 s
Bit rate mode : Constant
Bit rate : 384 kb/s
Channel(s) : 6 channels
Channel positions : Front: L C R, Side: L R, LFE
Sampling rate : 48.0 kHz
Frame rate : 31.250 FPS (1536 SPF)
Bit depth : 16 bits
Compression mode : Lossy
Delay relative to video : 64 ms
Stream size : 139 MiB (20%)
Title : Surround
Language : Dutch
Service kind : Complete Main
Default : Yes
Forced : No





Genius S02E10


Genius S02E10


Genius S02E10


Genius S02E10


Genius S02E10

All episodes