Featured TV Shows


Game of Thrones S08E06

Posted By: Tavaz
1080p (FullHD) / WEB-DL IMDb
Game of Thrones S08E06

Game of Thrones S08E06
WEB-DL | MKV | 1920x1080 | Italian / English | H264 @ 7548 kbps | AC-3 @ 384 kbps | 1 h 15 min | 4.38 GiB
Subtitles: English, Italian
Genre: Drama


Seven noble families fight for control of the mythical land of Westeros. Friction between the houses leads to full-scale war. All while a very ancient evil awakens in the farthest north. Amidst the war, a neglected military order of misfits, the Night's Watch, is all that stands between the realms of men and icy horrors beyond.

Game.Of.Thrones.8x06.Il.Trono.Di.Spade.ITA-ENG.1080p.WEBMux.DD5.1.x264-NovaRip.mkv (4.4 GB)



General
Unique ID : 1539469424078066974660752503745920485 (0x1287DB3E51F8D5B251663FD8FF1BDE5)
Complete name : ./Game.Of.Thrones.8x06.Il.Trono.Di.Spade.ITA-ENG.1080p.WEBMux.DD5.1.x264-NovaRip.mkv
Format : Matroska
Format version : Version 2
File size : 4.38 GiB
Duration : 1 h 15 min
Overall bit rate : 8 319 kb/s
Encoded date : UTC 2019-05-27 19:09:15
Writing application : mkvmerge v8.5.2 ('Crosses') 64bit
Writing library : libebml v1.3.3 + libmatroska v1.4.4

Video
ID : 1
Format : AVC
Format/Info : Advanced Video Codec
Format profile : High@L4
Format settings : CABAC / 4 Ref Frames
Format settings, CABAC : Yes
Format settings, RefFrames : 4 frames
Codec ID : V_MPEG4/ISO/AVC
Duration : 1 h 15 min
Bit rate mode : Constant
Bit rate : 7 548 kb/s
Nominal bit rate : 10 000 kb/s
Width : 1 920 pixels
Height : 1 080 pixels
Display aspect ratio : 16:9
Frame rate mode : Constant
Frame rate : 25.000 FPS
Original frame rate : 23.976 (24000/1001) FPS
Color space : YUV
Chroma subsampling : 4:2:0
Bit depth : 8 bits
Scan type : Progressive
Bits/(Pixel*Frame) : 0.146
Stream size : 3.97 GiB (91%)
Language : English
Default : Yes
Forced : Yes
Color range : Limited
Color primaries : BT.709
Transfer characteristics : BT.709
Matrix coefficients : BT.709

Audio #1
ID : 2
Format : AC-3
Format/Info : Audio Coding 3
Format settings, Endianness : Big
Codec ID : A_AC3
Duration : 1 h 15 min
Bit rate mode : Constant
Bit rate : 384 kb/s
Channel(s) : 6 channels
Channel positions : Front: L C R, Side: L R, LFE
Sampling rate : 48.0 kHz
Frame rate : 31.250 FPS (1536 SPF)
Bit depth : 16 bits
Compression mode : Lossy
Stream size : 207 MiB (5%)
Title : ITA
Language : Italian
Service kind : Complete Main
Default : Yes
Forced : Yes

Audio #2
ID : 3
Format : AC-3
Format/Info : Audio Coding 3
Format settings, Endianness : Big
Codec ID : A_AC3
Duration : 1 h 15 min
Bit rate mode : Constant
Bit rate : 384 kb/s
Channel(s) : 6 channels
Channel positions : Front: L C R, Side: L R, LFE
Sampling rate : 48.0 kHz
Frame rate : 31.250 FPS (1536 SPF)
Bit depth : 16 bits
Compression mode : Lossy
Stream size : 207 MiB (5%)
Title : ENG
Language : English
Service kind : Complete Main
Default : No
Forced : No

Text #1
ID : 4
Format : UTF-8
Codec ID : S_TEXT/UTF8
Codec ID/Info : UTF-8 Plain Text
Duration : 48 min 3 s
Bit rate : 3 b/s
Count of elements : 31
Stream size : 1.18 KiB (0%)
Title : ITA - Forced
Language : Italian
Default : Yes
Forced : Yes

Text #2
ID : 5
Format : UTF-8
Codec ID : S_TEXT/UTF8
Codec ID/Info : UTF-8 Plain Text
Duration : 1 h 12 min
Bit rate : 34 b/s
Count of elements : 526
Stream size : 18.2 KiB (0%)
Title : ITA
Language : Italian
Default : No
Forced : No

Text #3
ID : 6
Format : UTF-8
Codec ID : S_TEXT/UTF8
Codec ID/Info : UTF-8 Plain Text
Duration : 1 h 7 min
Bit rate : 29 b/s
Count of elements : 505
Stream size : 14.6 KiB (0%)
Title : ENG
Language : English
Default : No
Forced : No





Game of Thrones S08E06


Game of Thrones S08E06


Game of Thrones S08E06


Game of Thrones S08E06


Game of Thrones S08E06

All episodes