Featured TV Shows


Game of Thrones S08E06

Posted By: Tavaz
1080p (FullHD) / BDRip IMDb
Game of Thrones S08E06

Game of Thrones S08E06
BDRip | MKV | 1920x1080 | English | H265 @ 3966 kbps | DTS | 1 h 18 min | 3.58 GiB
Subtitles: English
Genre: Drama


Seven noble families fight for control of the mythical land of Westeros. Friction between the houses leads to full-scale war. All while a very ancient evil awakens in the farthest north. Amidst the war, a neglected military order of misfits, the Night's Watch, is all that stands between the realms of men and icy horrors beyond.

97c5675b0866109ec0c80c9873eafb9a.mkv (3.6 GB)



General
Unique ID : 226207111458106833450972953539253301076 (0xAA2DE7AB6577D0D4A034B1DFE88EEF54)
Complete name : ./97c5675b0866109ec0c80c9873eafb9a.mkv
Format : Matroska
Format version : Version 2
File size : 3.58 GiB
Duration : 1 h 18 min
Overall bit rate : 6 515 kb/s
Movie name : Game.of.Thrones.S08E06.The.Iron.Throne.BluRay.10Bit.1080p.Dts-HD Ma 5.1.H265-d3g
Encoded date : UTC 2019-11-22 00:17:53
Writing application : DVDFab 11.0.6.1
Writing library : libebml v1.3.4 + libmatroska v1.4.5

Video
ID : 1
Format : HEVC
Format/Info : High Efficiency Video Coding
Format profile : Main 10@L4@Main
Codec ID : V_MPEGH/ISO/HEVC
Duration : 1 h 18 min
Bit rate : 3 966 kb/s
Width : 1 920 pixels
Height : 1 080 pixels
Display aspect ratio : 16:9
Frame rate mode : Constant
Frame rate : 23.976 (24000/1001) FPS
Color space : YUV
Chroma subsampling : 4:2:0
Bit depth : 10 bits
Bits/(Pixel*Frame) : 0.080
Stream size : 2.18 GiB (61%)
Default : Yes
Forced : No
Color range : Limited
Color primaries : BT.709
Transfer characteristics : BT.709
Matrix coefficients : BT.709

Audio
ID : 2
Format : DTS
Format/Info : Digital Theater Systems
Format profile : MA / Core
Mode : 16
Format settings, Endianness : Big
Codec ID : A_DTS
Duration : 1 h 18 min
Bit rate mode : Variable / Constant
Bit rate : 2 539 kb/s / 1 509 kb/s
Channel(s) : 6 channels
Channel positions : Front: L C R, Side: L R, LFE
Sampling rate : 48.0 kHz
Frame rate : 93.750 FPS (512 SPF)
Bit depth : 16 bits
Compression mode : Lossless / Lossy
Stream size : 1.39 GiB (39%)
Language : English
Default : Yes
Forced : No

Text #1
ID : 3
Format : VobSub
Codec ID : S_VOBSUB
Codec ID/Info : Picture based subtitle format used on DVDs
Duration : 45 min 29 s
Bit rate : 419 b/s
Count of elements : 27
Stream size : 140 KiB (0%)
Language : English
Default : Yes
Forced : No

Text #2
ID : 4
Format : VobSub
Codec ID : S_VOBSUB
Codec ID/Info : Picture based subtitle format used on DVDs
Duration : 1 h 13 min
Bit rate : 5 720 b/s
Count of elements : 618
Stream size : 3.01 MiB (0%)
Language : English
Default : No
Forced : No

Menu
00:00:00.000 : en:Chapter 1
00:02:01.121 : en:Chapter 2
00:20:18.300 : en:Chapter 3
00:30:46.887 : en:Chapter 4
00:42:40.475 : en:Chapter 5
00:55:21.777 : en:Chapter 6
01:04:56.351 : en:Chapter 7
01:17:17.174 : en:Chapter 8





Game of Thrones S08E06


Game of Thrones S08E06


Game of Thrones S08E06


Game of Thrones S08E06


Game of Thrones S08E06

All episodes