Featured TV Shows


Game of Thrones S01E02

Posted By: Tavaz
1080p (FullHD) / BDRip IMDb
Game of Thrones S01E02

Game of Thrones S01E02
BDRip | MKV | 1920x1080 | English | H265 @ 4242 kbps | TrueHD @ 4699 kbps | 55 min 17 s | 3.48 GiB
Subtitles: English
Genre: Drama

Seven noble families fight for control of the mythical land of Westeros. Friction between the houses leads to full-scale war. All while a very ancient evil awakens in the farthest north. Amidst the war, a neglected military order of misfits, the Night's Watch, is all that stands between the realms of men and icy horrors beyond.

c78b033da84945359b0b74e80f4234f5.mkv (3.5 GB)



General
Unique ID : 196252980187139733664202847563331933191 (0x93A4F2F9A4DB72E0B69236AA3A741407)
Complete name : ./c78b033da84945359b0b74e80f4234f5.mkv
Format : Matroska
Format version : Version 4 / Version 2
File size : 3.48 GiB
Duration : 55 min 17 s
Overall bit rate mode : Variable
Overall bit rate : 9 021 kb/s
Encoded date : UTC 2016-02-03 18:41:56
Writing application : mkvmerge v8.8.0 ('Wind at my back') 64bit
Writing library : libebml v1.3.3 + libmatroska v1.4.4

Video
ID : 1
Format : HEVC
Format/Info : High Efficiency Video Coding
Format profile : Main 10@L4@Main
Codec ID : V_MPEGH/ISO/HEVC
Duration : 55 min 17 s
Bit rate : 4 243 kb/s
Width : 1 920 pixels
Height : 1 080 pixels
Display aspect ratio : 16:9
Frame rate mode : Constant
Frame rate : 23.976 (24000/1001) FPS
Color space : YUV
Chroma subsampling : 4:2:0
Bit depth : 10 bits
Bits/(Pixel*Frame) : 0.085
Stream size : 1.64 GiB (47%)
Writing library : x265 1.9+3-548a45bbf223:[Windows][GCC 5.3.0][64 bit] 10bit
Encoding settings : wpp / ctu=64 / min-cu-size=8 / max-tu-size=32 / tu-intra-depth=2 / tu-inter-depth=2 / me=3 / subme=3 / merange=57 / rect / amp / max-merge=3 / temporal-mvp / early-skip / rdpenalty=0 / no-tskip / no-tskip-fast / strong-intra-smoothing / no-lossless / no-cu-lossless / no-constrained-intra / no-fast-intra / open-gop / no-temporal-layers / interlace=0 / keyint=250 / min-keyint=23 / scenecut=40 / rc-lookahead=60 / lookahead-slices=1 / bframes=8 / bframe-bias=0 / b-adapt=2 / ref=4 / limit-refs=2 / limit-modes / weightp / weightb / aq-mode=3 / qg-size=16 / aq-strength=1.00 / cbqpoffs=0 / crqpoffs=0 / rd=6 / psy-rd=2.00 / rdoq-level=0 / psy-rdoq=0.00 / no-rd-refine / signhide / deblock=-2:-2 / sao / no-sao-non-deblock / b-pyramid / cutree / no-intra-refresh / rc=crf / crf=23.5 / qcomp=0.80 / qpmin=0 / qpmax=51 / qpstep=4 / ipratio=1.10 / pbratio=1.10
Default : Yes
Forced : No

Audio
ID : 2
Format : TrueHD
Format profile : TrueHD+Atmos / TrueHD
Codec ID : A_TRUEHD
Duration : 55 min 17 s
Bit rate mode : Variable
Bit rate : 4 700 kb/s
Maximum bit rate : 7 116 kb/s
Channel(s) : Object Based / 8 channels
Channel positions : Object Based / Front: L C R, Side: L R, Back: L R, LFE
Sampling rate : / 48.0 kHz
Frame rate : 1 200.000 FPS (40 SPF)
Compression mode : Lossless
Delay relative to video : 1 ms
Stream size : 1.82 GiB (52%)
Language : English
Default : No
Forced : No

Text
ID : 3
Format : PGS
Muxing mode : zlib
Codec ID : S_HDMV/PGS
Codec ID/Info : Picture based subtitle format used on BDs/HD-DVDs
Duration : 51 min 48 s
Bit rate : 11.2 kb/s
Count of elements : 1252
Stream size : 4.14 MiB (0%)
Language : English
Default : Yes
Forced : No

Menu
00:00:00.000 : en:00:00:00.000
00:00:06.006 : en:00:00:06.006
00:01:47.107 : en:00:01:47.107
00:08:43.398 : en:00:08:43.398
00:18:47.793 : en:00:18:47.793
00:28:41.929 : en:00:28:41.929
00:38:18.922 : en:00:38:18.922
00:46:46.012 : en:00:46:46.012
00:54:12.666 : en:00:54:12.666





Game of Thrones S01E02


Game of Thrones S01E02


Game of Thrones S01E02


Game of Thrones S01E02


Game of Thrones S01E02

All episodes