Featured TV Shows


Game of Thrones S02E04

Posted By: Tavaz
1080p (FullHD) / BDRip IMDb
Game of Thrones S02E04

Game of Thrones S02E04
BDRip | MKV | 1920x1080 | English | H265 @ 2833 kbps | TrueHD @ 4458 kbps | 50 min 41 s | 2.61 GiB
Subtitles: English
Genre: Drama

Seven noble families fight for control of the mythical land of Westeros. Friction between the houses leads to full-scale war. All while a very ancient evil awakens in the farthest north. Amidst the war, a neglected military order of misfits, the Night's Watch, is all that stands between the realms of men and icy horrors beyond.

f9bc941eb80e446c942cf084bd383523.mkv (2.6 GB)



General
Unique ID : 220719803786164092578674331629846545464 (0xA60D168370774A86AEA9559F8F184438)
Complete name : ./f9bc941eb80e446c942cf084bd383523.mkv
Format : Matroska
Format version : Version 4 / Version 2
File size : 2.61 GiB
Duration : 50 min 41 s
Overall bit rate mode : Variable
Overall bit rate : 7 373 kb/s
Movie name : Game Of Thrones Season 2 Disc 2
Encoded date : UTC 2016-01-25 20:31:59
Writing application : mkvmerge v8.8.0 ('Wind at my back') 64bit
Writing library : libebml v1.3.3 + libmatroska v1.4.4

Video
ID : 1
Format : HEVC
Format/Info : High Efficiency Video Coding
Format profile : Main 10@L4@Main
Codec ID : V_MPEGH/ISO/HEVC
Duration : 50 min 41 s
Bit rate : 2 833 kb/s
Width : 1 920 pixels
Height : 1 080 pixels
Display aspect ratio : 16:9
Frame rate mode : Constant
Frame rate : 23.976 (24000/1001) FPS
Color space : YUV
Chroma subsampling : 4:2:0
Bit depth : 10 bits
Bits/(Pixel*Frame) : 0.057
Stream size : 1.00 GiB (38%)
Writing library : x265 1.7+357-b2ba7df1fc699251:[Windows][GCC 5.1.0][64 bit] 10bit: KG7x [x265.ru]
Encoding settings : wpp / ctu=64 / min-cu-size=8 / max-tu-size=32 / tu-intra-depth=1 / tu-inter-depth=1 / me=3 / subme=3 / merange=57 / rect / no-amp / max-merge=3 / temporal-mvp / no-early-skip / rdpenalty=0 / no-tskip / no-tskip-fast / strong-intra-smoothing / no-lossless / no-cu-lossless / no-constrained-intra / no-fast-intra / open-gop / no-temporal-layers / interlace=0 / keyint=288 / min-keyint=23 / scenecut=40 / rc-lookahead=25 / lookahead-slices=0 / bframes=4 / bframe-bias=0 / b-adapt=2 / ref=3 / limit-refs=0 / weightp / no-weightb / aq-mode=1 / aq-strength=0.30 / cbqpoffs=0 / crqpoffs=0 / rd=4 / psy-rd=0.50 / rdoq-level=1 / psy-rdoq=0.00 / signhide / deblock=-2:-2 / sao / no-sao-non-deblock / b-pyramid / cutree / rc=crf / crf=19.0 / qcomp=0.80 / qpmin=0 / qpmax=51 / qpstep=4 / ipratio=1.10 / pbratio=1.10
Default : Yes
Forced : No

Audio
ID : 2
Format : TrueHD
Format profile : TrueHD+Atmos / TrueHD
Codec ID : A_TRUEHD
Duration : 50 min 40 s
Bit rate mode : Variable
Bit rate : 4 459 kb/s
Maximum bit rate : 7 122 kb/s
Channel(s) : Object Based / 8 channels
Channel positions : Object Based / Front: L C R, Side: L R, Back: L R, LFE
Sampling rate : / 48.0 kHz
Frame rate : 1 200.000 FPS (40 SPF)
Compression mode : Lossless
Stream size : 1.58 GiB (60%)
Language : English
Default : No
Forced : No

Text #1
ID : 3
Format : PGS
Muxing mode : zlib
Codec ID : S_HDMV/PGS
Codec ID/Info : Picture based subtitle format used on BDs/HD-DVDs
Duration : 47 min 22 s
Bit rate : 13.0 kb/s
Count of elements : 1364
Stream size : 4.40 MiB (0%)
Language : English
Default : No
Forced : No

Text #2
ID : 4
Format : PGS
Muxing mode : zlib
Codec ID : S_HDMV/PGS
Codec ID/Info : Picture based subtitle format used on BDs/HD-DVDs
Duration : 19 s 352 ms
Bit rate : 17.1 kb/s
Count of elements : 14
Stream size : 40.3 KiB (0%)
Language : English
Default : Yes
Forced : No

Menu
00:00:00.000 : en:Chapter 01
00:01:53.696 : en:Chapter 02
00:11:05.247 : en:Chapter 03
00:18:37.658 : en:Chapter 04
00:25:47.212 : en:Chapter 05
00:32:01.252 : en:Chapter 06
00:39:50.679 : en:Chapter 07
00:49:21.708 : en:Chapter 08





Game of Thrones S02E04


Game of Thrones S02E04


Game of Thrones S02E04


Game of Thrones S02E04


Game of Thrones S02E04

All episodes