Featured TV Shows


Game of Thrones S02E10

Posted By: Tavaz
1080p (FullHD) / BDRip IMDb
Game of Thrones S02E10

Game of Thrones S02E10
BDRip | MKV | 1920x1080 | English | H265 @ 2976 kbps | TrueHD @ 4383 kbps | 1 h 3 min | 3.30 GiB
Subtitles: English
Genre: Drama

Seven noble families fight for control of the mythical land of Westeros. Friction between the houses leads to full-scale war. All while a very ancient evil awakens in the farthest north. Amidst the war, a neglected military order of misfits, the Night's Watch, is all that stands between the realms of men and icy horrors beyond.

7edf3736d58642bda0362e4c04666d82.mkv (3.3 GB)



General
Unique ID : 240856243829067357463767392828677578903 (0xB53339A88FE55421B20A5CC89A7E6097)
Complete name : ./7edf3736d58642bda0362e4c04666d82.mkv
Format : Matroska
Format version : Version 4 / Version 2
File size : 3.30 GiB
Duration : 1 h 3 min
Overall bit rate mode : Variable
Overall bit rate : 7 439 kb/s
Movie name : Game Of Thrones Season 2 Disc 5
Encoded date : UTC 2016-01-25 21:00:01
Writing application : mkvmerge v8.8.0 ('Wind at my back') 64bit
Writing library : libebml v1.3.3 + libmatroska v1.4.4

Video
ID : 1
Format : HEVC
Format/Info : High Efficiency Video Coding
Format profile : Main 10@L4@Main
Codec ID : V_MPEGH/ISO/HEVC
Duration : 1 h 3 min
Bit rate : 2 977 kb/s
Width : 1 920 pixels
Height : 1 080 pixels
Display aspect ratio : 16:9
Frame rate mode : Constant
Frame rate : 23.976 (24000/1001) FPS
Color space : YUV
Chroma subsampling : 4:2:0
Bit depth : 10 bits
Bits/(Pixel*Frame) : 0.060
Stream size : 1.32 GiB (40%)
Writing library : x265 1.7+374-b015514a93868e2d:[Windows][GCC 5.2.0][64 bit] 10bit: KG7x [x265.ru]
Encoding settings : wpp / ctu=64 / min-cu-size=8 / max-tu-size=32 / tu-intra-depth=1 / tu-inter-depth=1 / me=3 / subme=3 / merange=57 / rect / no-amp / max-merge=3 / temporal-mvp / no-early-skip / rdpenalty=0 / no-tskip / no-tskip-fast / strong-intra-smoothing / no-lossless / no-cu-lossless / no-constrained-intra / no-fast-intra / open-gop / no-temporal-layers / interlace=0 / keyint=240 / min-keyint=23 / scenecut=40 / rc-lookahead=25 / lookahead-slices=0 / bframes=4 / bframe-bias=0 / b-adapt=2 / ref=3 / limit-refs=0 / weightp / no-weightb / aq-mode=1 / aq-strength=0.30 / cbqpoffs=0 / crqpoffs=0 / rd=4 / psy-rd=0.50 / rdoq-level=1 / psy-rdoq=0.00 / signhide / deblock=-2:-2 / sao / no-sao-non-deblock / b-pyramid / cutree / rc=crf / crf=19.0 / qcomp=0.80 / qpmin=0 / qpmax=51 / qpstep=4 / ipratio=1.10 / pbratio=1.10
Default : Yes
Forced : No

Audio
ID : 2
Format : TrueHD
Format profile : TrueHD+Atmos / TrueHD
Codec ID : A_TRUEHD
Duration : 1 h 3 min
Bit rate mode : Variable
Bit rate : 4 383 kb/s
Maximum bit rate : 7 761 kb/s
Channel(s) : Object Based / 8 channels
Channel positions : Object Based / Front: L C R, Side: L R, Back: L R, LFE
Sampling rate : / 48.0 kHz
Frame rate : 1 200.000 FPS (40 SPF)
Compression mode : Lossless
Stream size : 1.94 GiB (59%)
Language : English
Default : No
Forced : No

Text #1
ID : 3
Format : PGS
Muxing mode : zlib
Codec ID : S_HDMV/PGS
Codec ID/Info : Picture based subtitle format used on BDs/HD-DVDs
Duration : 59 min 57 s
Bit rate : 10.1 kb/s
Count of elements : 1410
Stream size : 4.32 MiB (0%)
Language : English
Default : No
Forced : No

Text #2
ID : 4
Format : PGS
Muxing mode : zlib
Codec ID : S_HDMV/PGS
Codec ID/Info : Picture based subtitle format used on BDs/HD-DVDs
Duration : 23 min 19 s
Bit rate : 829 b/s
Count of elements : 42
Stream size : 142 KiB (0%)
Language : English
Default : Yes
Forced : No

Menu
00:00:00.000 : en:Chapter 01
00:01:55.698 : en:Chapter 02
00:11:49.750 : en:Chapter 03
00:22:05.449 : en:Chapter 04
00:33:31.801 : en:Chapter 05
00:43:35.237 : en:Chapter 06
00:51:48.230 : en:Chapter 07
01:02:07.265 : en:Chapter 08





Game of Thrones S02E10


Game of Thrones S02E10


Game of Thrones S02E10


Game of Thrones S02E10


Game of Thrones S02E10

All episodes