Featured TV Shows


Game of Thrones S03E01

Posted By: Tavaz
1080p (FullHD) / BDRip IMDb
Game of Thrones S03E01

Game of Thrones S03E01
BDRip | MKV | 1920x1080 | English | H265 @ 2003 kbps | AAC @ 192 kbps | 54 min 33 s | 862 MiB
Subtitles: Arabic, English
Genre: Drama

Seven noble families fight for control of the mythical land of Westeros. Friction between the houses leads to full-scale war. All while a very ancient evil awakens in the farthest north. Amidst the war, a neglected military order of misfits, the Night's Watch, is all that stands between the realms of men and icy horrors beyond.

c42a078de49e483c9a16b659f50cbd39.mkv (862.3 MB)



General
Unique ID : 204319195916605011690227016111539800837 (0x99B6721D844F67858C8700D57806CB05)
Complete name : ./c42a078de49e483c9a16b659f50cbd39.mkv
Format : Matroska
Format version : Version 4 / Version 2
File size : 862 MiB
Duration : 54 min 33 s
Overall bit rate : 2 210 kb/s
Encoded date : UTC 2017-07-07 20:09:04
Writing application : mkvmerge v9.6.0 ('Slave To Your Mind') 64bit
Writing library : libebml v1.3.4 + libmatroska v1.4.5

Video
ID : 1
Format : HEVC
Format/Info : High Efficiency Video Coding
Format profile : Main 10@L4@Main
Codec ID : V_MPEGH/ISO/HEVC
Duration : 54 min 33 s
Bit rate : 2 004 kb/s
Width : 1 920 pixels
Height : 1 080 pixels
Display aspect ratio : 16:9
Frame rate mode : Constant
Frame rate : 23.976 (24000/1001) FPS
Original frame rate : 23.976 (23976/1000) FPS
Color space : YUV
Chroma subsampling : 4:2:0
Bit depth : 10 bits
Bits/(Pixel*Frame) : 0.040
Stream size : 782 MiB (91%)
Title : HEVC x265 10bit Video / 2000 kbps / 1080p / 23.976 fps / Main 10 Profile 4
Writing library : x265 1.9:[Linux][GCC 4.6.2][64 bit] 10bit
Encoding settings : wpp / ctu=64 / min-cu-size=8 / max-tu-size=32 / tu-intra-depth=1 / tu-inter-depth=1 / me=3 / subme=3 / merange=57 / rect / no-amp / max-merge=3 / temporal-mvp / no-early-skip / rdpenalty=0 / no-tskip / no-tskip-fast / strong-intra-smoothing / no-lossless / no-cu-lossless / no-constrained-intra / no-fast-intra / no-open-gop / no-temporal-layers / interlace=0 / keyint=250 / min-keyint=23 / scenecut=40 / rc-lookahead=25 / lookahead-slices=4 / bframes=4 / bframe-bias=0 / b-adapt=2 / ref=3 / limit-refs=3 / limit-modes / weightp / no-weightb / aq-mode=1 / qg-size=32 / aq-strength=1.00 / cbqpoffs=0 / crqpoffs=0 / rd=4 / psy-rd=2.00 / rdoq-level=2 / psy-rdoq=1.00 / signhide / deblock / sao / no-sao-non-deblock / b-pyramid / cutree / no-intra-refresh / rc=2 / pass / bitrate=2000 / qcomp=0.60 / qpmin=0 / qpmax=51 / qpstep=4 / cplxblur=20.0 / qblur=0.5 / ipratio=1.40 / pbratio=1.30
Default : Yes
Forced : No

Audio
ID : 2
Format : AAC
Format/Info : Advanced Audio Codec
Format profile : HE-AAC / LC
Format settings : Explicit
Codec ID : A_AAC-2
Duration : 54 min 33 s
Bit rate : 192 kb/s
Channel(s) : 6 channels
Channel positions : Front: L C R, Side: L R, LFE
Sampling rate : 48.0 kHz / 24.0 kHz
Frame rate : 23.438 FPS (1024 SPF)
Compression mode : Lossy
Delay relative to video : 40 ms
Stream size : 74.9 MiB (9%)
Title : HE-AAC / 5.1 / 48 kHz / 192 kbps
Language : English
Default : No
Forced : No

Text #1
ID : 3
Format : PGS
Muxing mode : zlib
Codec ID : S_HDMV/PGS
Codec ID/Info : Picture based subtitle format used on BDs/HD-DVDs
Duration : 3 min 9 s
Bit rate : 5 806 b/s
Count of elements : 42
Stream size : 135 KiB (0%)
Language : English
Default : No
Forced : No

Text #2
ID : 4
Format : PGS
Muxing mode : zlib
Codec ID : S_HDMV/PGS
Codec ID/Info : Picture based subtitle format used on BDs/HD-DVDs
Duration : 52 min 50 s
Bit rate : 11.6 kb/s
Count of elements : 1420
Stream size : 4.39 MiB (1%)
Language : English
Default : No
Forced : No

Text #3
ID : 5
Format : UTF-8
Codec ID : S_TEXT/UTF8
Codec ID/Info : UTF-8 Plain Text
Duration : 52 min 45 s
Bit rate : 83 b/s
Count of elements : 486
Stream size : 32.2 KiB (0%)
Language : Arabic
Default : No
Forced : No

Menu
00:00:00.000 : en:Chapter 1
00:00:08.008 : en:Chapter 2
00:05:08.558 : en:Chapter 3
00:12:30.249 : en:Chapter 4
00:18:53.549 : en:Chapter 5
00:26:47.856 : en:Chapter 6
00:35:26.374 : en:Chapter 7
00:43:20.306 : en:Chapter 8
00:53:13.732 : en:Chapter 9





Game of Thrones S03E01


Game of Thrones S03E01


Game of Thrones S03E01


Game of Thrones S03E01


Game of Thrones S03E01

All episodes