Featured TV Shows


Game of Thrones S04E01

Posted By: Tavaz
1080p (FullHD) / BDRip IMDb
Game of Thrones S04E01

Game of Thrones S04E01
BDRip | MKV | 1920x1080 | English / English | H265 @ 5751 kbps | TrueHD @ 4096 kbps | 58 min 15 s | 4.23 GiB
Subtitles: Swedish, Portuguese, Dutch, Finnish, Danish, German, English, French, Norwegian, Spanish, Italian
Genre: Drama

Seven noble families fight for control of the mythical land of Westeros. Friction between the houses leads to full-scale war. All while a very ancient evil awakens in the farthest north. Amidst the war, a neglected military order of misfits, the Night's Watch, is all that stands between the realms of men and icy horrors beyond.

0d04e708cf4a45a18767ea71fe62e998.mkv (4.2 GB)



General
Unique ID : 190895196170209946067060486177368815072 (0x8F9D13D40D00A555A9D8CDB2974FB5E0)
Complete name : ./0d04e708cf4a45a18767ea71fe62e998.mkv
Format : Matroska
Format version : Version 4 / Version 2
File size : 4.23 GiB
Duration : 58 min 15 s
Overall bit rate mode : Variable
Overall bit rate : 10.4 Mb/s
Movie name : Game Of Thrones Season 4 Disc 1
Encoded date : UTC 2016-09-30 06:05:29
Writing application : mkvmerge v9.4.2 ('So High') 64bit
Writing library : libebml v1.3.4 + libmatroska v1.4.5
Cover : Yes
Attachments : cover.jpeg

Video
ID : 1
Format : HEVC
Format/Info : High Efficiency Video Coding
Format profile : Main 10@L4@Main
Codec ID : V_MPEGH/ISO/HEVC
Duration : 58 min 15 s
Bit rate : 5 751 kb/s
Width : 1 920 pixels
Height : 1 080 pixels
Display aspect ratio : 16:9
Frame rate mode : Constant
Frame rate : 23.976 (24000/1001) FPS
Color space : YUV
Chroma subsampling : 4:2:0
Bit depth : 10 bits
Bits/(Pixel*Frame) : 0.116
Stream size : 2.34 GiB (55%)
Title : Hevc
Writing library : x265 2.1+3-5fa48115cfaa:[Windows][MSVC 1900][64 bit] 10bit
Encoding settings : wpp / ctu=32 / min-cu-size=8 / max-tu-size=32 / tu-intra-depth=1 / tu-inter-depth=1 / me=3 / subme=3 / merange=57 / rect / no-amp / max-merge=3 / temporal-mvp / no-early-skip / no-rskip / rdpenalty=0 / no-tskip / no-tskip-fast / no-strong-intra-smoothing / no-lossless / no-cu-lossless / no-constrained-intra / no-fast-intra / open-gop / no-temporal-layers / interlace=0 / keyint=250 / min-keyint=23 / scenecut=40 / rc-lookahead=120 / lookahead-slices=4 / bframes=8 / bframe-bias=0 / b-adapt=2 / ref=4 / limit-refs=3 / limit-modes / weightp / weightb / aq-mode=2 / qg-size=16 / aq-strength=1.00 / cbqpoffs=-3 / crqpoffs=-3 / rd=4 / psy-rd=2.50 / rdoq-level=2 / psy-rdoq=10.00 / log2-max-poc-lsb=8 / no-rd-refine / signhide / deblock=-2:-2 / no-sao / no-sao-non-deblock / b-pyramid / cutree / no-intra-refresh / rc=crf / crf=19.0 / qcomp=0.65 / qpmin=0 / qpmax=69 / qpstep=4 / ipratio=1.40 / pbratio=1.20
Default : Yes
Forced : No

Audio #1
ID : 2
Format : TrueHD
Format profile : TrueHD+Atmos / TrueHD
Codec ID : A_TRUEHD
Duration : 58 min 15 s
Bit rate mode : Variable
Bit rate : 4 096 kb/s
Maximum bit rate : 6 618 kb/s
Channel(s) : Object Based / 8 channels
Channel positions : Object Based / Front: L C R, Side: L R, Back: L R, LFE
Sampling rate : / 48.0 kHz
Frame rate : 1 200.000 FPS (40 SPF)
Compression mode : Lossless
Stream size : 1.67 GiB (39%)
Language : English
Default : Yes
Forced : No

Audio #2
ID : 3
Format : AAC
Format/Info : Advanced Audio Codec
Format profile : LC
Codec ID : A_AAC-2
Duration : 58 min 15 s
Bit rate : 336 kb/s
Channel(s) : 6 channels
Channel positions : Front: L C R, Side: L R, LFE
Sampling rate : 48.0 kHz
Frame rate : 46.875 FPS (1024 SPF)
Compression mode : Lossy
Delay relative to video : 9 ms
Stream size : 140 MiB (3%)
Title : Commentary by David Benioff, D.B. Weiss, Pedro Pascal
Default : No
Forced : No

Text #1
ID : 4
Format : PGS
Muxing mode : zlib
Codec ID : S_HDMV/PGS
Codec ID/Info : Picture based subtitle format used on BDs/HD-DVDs
Duration : 56 min 5 s
Bit rate : 12.9 kb/s
Count of elements : 1664
Stream size : 5.16 MiB (0%)
Language : English
Default : No
Forced : No

Text #2
ID : 5
Format : PGS
Muxing mode : zlib
Codec ID : S_HDMV/PGS
Codec ID/Info : Picture based subtitle format used on BDs/HD-DVDs
Duration : 11 s 887 ms
Bit rate : 16.7 kb/s
Count of elements : 10
Stream size : 24.2 KiB (0%)
Language : English
Default : No
Forced : No

Text #3
ID : 6
Format : PGS
Muxing mode : zlib
Codec ID : S_HDMV/PGS
Codec ID/Info : Picture based subtitle format used on BDs/HD-DVDs
Duration : 54 min 18 s
Bit rate : 10.9 kb/s
Count of elements : 1628
Stream size : 4.24 MiB (0%)
Language : French
Default : No
Forced : No

Text #4
ID : 7
Format : PGS
Muxing mode : zlib
Codec ID : S_HDMV/PGS
Codec ID/Info : Picture based subtitle format used on BDs/HD-DVDs
Duration : 46 min 11 s
Bit rate : 175 b/s
Count of elements : 28
Stream size : 59.2 KiB (0%)
Language : French
Default : No
Forced : No

Text #5
ID : 8
Format : PGS
Muxing mode : zlib
Codec ID : S_HDMV/PGS
Codec ID/Info : Picture based subtitle format used on BDs/HD-DVDs
Duration : 52 min 13 s
Bit rate : 12.7 kb/s
Count of elements : 1628
Stream size : 4.73 MiB (0%)
Language : Spanish
Default : No
Forced : No

Text #6
ID : 9
Format : PGS
Muxing mode : zlib
Codec ID : S_HDMV/PGS
Codec ID/Info : Picture based subtitle format used on BDs/HD-DVDs
Duration : 28 s 279 ms
Bit rate : 9 865 b/s
Count of elements : 14
Stream size : 34.1 KiB (0%)
Language : Spanish
Default : No
Forced : No

Text #7
ID : 10
Format : PGS
Muxing mode : zlib
Codec ID : S_HDMV/PGS
Codec ID/Info : Picture based subtitle format used on BDs/HD-DVDs
Duration : 52 min 13 s
Bit rate : 12.4 kb/s
Count of elements : 1390
Stream size : 4.62 MiB (0%)
Language : Spanish
Default : No
Forced : No

Text #8
ID : 11
Format : PGS
Muxing mode : zlib
Codec ID : S_HDMV/PGS
Codec ID/Info : Picture based subtitle format used on BDs/HD-DVDs
Duration : 11 s 887 ms
Bit rate : 17.4 kb/s
Count of elements : 10
Stream size : 25.2 KiB (0%)
Language : Spanish
Default : No
Forced : No

Text #9
ID : 12
Format : PGS
Muxing mode : zlib
Codec ID : S_HDMV/PGS
Codec ID/Info : Picture based subtitle format used on BDs/HD-DVDs
Duration : 52 min 13 s
Bit rate : 12.3 kb/s
Count of elements : 1374
Stream size : 4.59 MiB (0%)
Language : German
Default : No
Forced : No

Text #10
ID : 13
Format : PGS
Muxing mode : zlib
Codec ID : S_HDMV/PGS
Codec ID/Info : Picture based subtitle format used on BDs/HD-DVDs
Duration : 11 s 845 ms
Bit rate : 14.9 kb/s
Count of elements : 8
Stream size : 21.5 KiB (0%)
Language : German
Default : No
Forced : No

Text #11
ID : 14
Format : PGS
Muxing mode : zlib
Codec ID : S_HDMV/PGS
Codec ID/Info : Picture based subtitle format used on BDs/HD-DVDs
Duration : 56 min 14 s
Bit rate : 11.8 kb/s
Count of elements : 1494
Stream size : 4.74 MiB (0%)
Language : Italian
Default : No
Forced : No

Text #12
ID : 15
Format : PGS
Muxing mode : zlib
Codec ID : S_HDMV/PGS
Codec ID/Info : Picture based subtitle format used on BDs/HD-DVDs
Duration : 11 s 845 ms
Bit rate : 18.0 kb/s
Count of elements : 10
Stream size : 26.1 KiB (0%)
Language : Italian
Default : No
Forced : No

Text #13
ID : 16
Format : PGS
Muxing mode : zlib
Codec ID : S_HDMV/PGS
Codec ID/Info : Picture based subtitle format used on BDs/HD-DVDs
Duration : 52 min 13 s
Bit rate : 12.5 kb/s
Count of elements : 1498
Stream size : 4.67 MiB (0%)
Language : Portuguese
Default : No
Forced : No

Text #14
ID : 17
Format : PGS
Muxing mode : zlib
Codec ID : S_HDMV/PGS
Codec ID/Info : Picture based subtitle format used on BDs/HD-DVDs
Duration : 52 min 13 s
Bit rate : 11.9 kb/s
Count of elements : 1502
Stream size : 4.44 MiB (0%)
Language : Dutch
Default : No
Forced : No

Text #15
ID : 18
Format : PGS
Muxing mode : zlib
Codec ID : S_HDMV/PGS
Codec ID/Info : Picture based subtitle format used on BDs/HD-DVDs
Duration : 52 min 13 s
Bit rate : 12.1 kb/s
Count of elements : 1502
Stream size : 4.53 MiB (0%)
Language : Danish
Default : No
Forced : No

Text #16
ID : 19
Format : PGS
Muxing mode : zlib
Codec ID : S_HDMV/PGS
Codec ID/Info : Picture based subtitle format used on BDs/HD-DVDs
Duration : 52 min 13 s
Bit rate : 9 959 b/s
Count of elements : 1502
Stream size : 3.72 MiB (0%)
Language : Finnish
Default : No
Forced : No

Text #17
ID : 20
Format : PGS
Muxing mode : zlib
Codec ID : S_HDMV/PGS
Codec ID/Info : Picture based subtitle format used on BDs/HD-DVDs
Duration : 52 min 13 s
Bit rate : 11.6 kb/s
Count of elements : 1502
Stream size : 4.33 MiB (0%)
Language : Norwegian
Default : No
Forced : No

Text #18
ID : 21
Format : PGS
Muxing mode : zlib
Codec ID : S_HDMV/PGS
Codec ID/Info : Picture based subtitle format used on BDs/HD-DVDs
Duration : 52 min 13 s
Bit rate : 11.6 kb/s
Count of elements : 1502
Stream size : 4.32 MiB (0%)
Language : Swedish
Default : No
Forced : No

Menu #1
00:00:00.000 : en:Chapter 01
00:00:09.426 : en:Chapter 02
00:01:52.487 : en:Chapter 03
00:03:40.762 : en:Chapter 04
00:09:29.777 : en:Chapter 05
00:17:03.981 : en:Chapter 06
00:25:18.266 : en:Chapter 07
00:36:19.844 : en:Chapter 08
00:46:38.253 : en:Chapter 09
00:56:53.326 : en:Chapter 10

Menu #2
00:00:00.054 : en:00:00:00.054

Menu #3
00:00:00.000 : en:Chapter 01
00:00:09.426 : en:Chapter 02
00:01:52.487 : en:Chapter 03
00:03:40.762 : en:Chapter 04
00:09:29.777 : en:Chapter 05
00:17:03.981 : en:Chapter 06
00:25:18.266 : en:Chapter 07
00:36:19.844 : en:Chapter 08
00:46:38.253 : en:Chapter 09
00:56:53.326 : en:Chapter 10





Game of Thrones S04E01


Game of Thrones S04E01


Game of Thrones S04E01


Game of Thrones S04E01


Game of Thrones S04E01

All episodes