Featured TV Shows


Game of Thrones S04E03

Posted By: Tavaz
1080p (FullHD) / BDRip IMDb
Game of Thrones S04E03

Game of Thrones S04E03
BDRip | MKV | 1920x1080 | English | H265 @ 4880 kbps | TrueHD @ 4361 kbps | 56 min 55 s | 3.76 GiB
Subtitles: Swedish, Portuguese, Dutch, Finnish, Danish, German, English, French, Norwegian, Spanish, Italian
Genre: Drama

Seven noble families fight for control of the mythical land of Westeros. Friction between the houses leads to full-scale war. All while a very ancient evil awakens in the farthest north. Amidst the war, a neglected military order of misfits, the Night's Watch, is all that stands between the realms of men and icy horrors beyond.

462ee42ab2104fde95064930567c1e8c.mkv (3.8 GB)



General
Unique ID : 186693694848190313809975592909779496477 (0x8C73E5D1DF3A17419BBFB417CB6FEE1D)
Complete name : ./462ee42ab2104fde95064930567c1e8c.mkv
Format : Matroska
Format version : Version 4 / Version 2
File size : 3.76 GiB
Duration : 56 min 55 s
Overall bit rate mode : Variable
Overall bit rate : 9 447 kb/s
Movie name : Game Of Thrones Season 4 Disc 2
Encoded date : UTC 2016-10-01 07:56:15
Writing application : mkvmerge v9.4.2 ('So High') 64bit
Writing library : libebml v1.3.4 + libmatroska v1.4.5
Cover : Yes
Attachments : cover.jpeg

Video
ID : 1
Format : HEVC
Format/Info : High Efficiency Video Coding
Format profile : Main 10@L4@Main
Codec ID : V_MPEGH/ISO/HEVC
Duration : 56 min 55 s
Bit rate : 4 880 kb/s
Width : 1 920 pixels
Height : 1 080 pixels
Display aspect ratio : 16:9
Frame rate mode : Constant
Frame rate : 23.976 (24000/1001) FPS
Color space : YUV
Chroma subsampling : 4:2:0
Bit depth : 10 bits
Bits/(Pixel*Frame) : 0.098
Stream size : 1.94 GiB (52%)
Title : Hevc
Writing library : x265 2.1+3-5fa48115cfaa:[Windows][MSVC 1900][64 bit] 10bit
Encoding settings : wpp / ctu=32 / min-cu-size=8 / max-tu-size=16 / tu-intra-depth=1 / tu-inter-depth=1 / me=3 / subme=3 / merange=44 / no-rect / no-amp / max-merge=3 / temporal-mvp / no-early-skip / no-rskip / rdpenalty=0 / no-tskip / no-tskip-fast / no-strong-intra-smoothing / no-lossless / no-cu-lossless / no-constrained-intra / no-fast-intra / open-gop / no-temporal-layers / interlace=0 / keyint=250 / min-keyint=23 / scenecut=40 / rc-lookahead=120 / lookahead-slices=4 / bframes=8 / bframe-bias=0 / b-adapt=2 / ref=4 / limit-refs=3 / limit-modes / weightp / weightb / aq-mode=2 / qg-size=16 / aq-strength=1.00 / cbqpoffs=-3 / crqpoffs=-3 / rd=4 / psy-rd=2.50 / rdoq-level=2 / psy-rdoq=10.00 / log2-max-poc-lsb=8 / no-rd-refine / signhide / deblock=-2:-2 / no-sao / no-sao-non-deblock / b-pyramid / cutree / no-intra-refresh / rc=crf / crf=19.0 / qcomp=0.65 / qpmin=0 / qpmax=69 / qpstep=4 / ipratio=1.40 / pbratio=1.20
Default : Yes
Forced : No

Audio
ID : 2
Format : TrueHD
Format profile : TrueHD+Atmos / TrueHD
Codec ID : A_TRUEHD
Duration : 56 min 55 s
Bit rate mode : Variable
Bit rate : 4 362 kb/s
Maximum bit rate : 7 443 kb/s
Channel(s) : Object Based / 8 channels
Channel positions : Object Based / Front: L C R, Side: L R, Back: L R, LFE
Sampling rate : / 48.0 kHz
Frame rate : 1 200.000 FPS (40 SPF)
Compression mode : Lossless
Stream size : 1.73 GiB (46%)
Language : English
Default : Yes
Forced : No

Text #1
ID : 3
Format : PGS
Muxing mode : zlib
Codec ID : S_HDMV/PGS
Codec ID/Info : Picture based subtitle format used on BDs/HD-DVDs
Duration : 53 min 0 s
Bit rate : 13.3 kb/s
Count of elements : 1618
Stream size : 5.04 MiB (0%)
Language : English
Default : No
Forced : No

Text #2
ID : 4
Format : PGS
Muxing mode : zlib
Codec ID : S_HDMV/PGS
Codec ID/Info : Picture based subtitle format used on BDs/HD-DVDs
Duration : 4 min 14 s
Bit rate : 4 880 b/s
Count of elements : 58
Stream size : 151 KiB (0%)
Language : English
Default : No
Forced : No

Text #3
ID : 5
Format : PGS
Muxing mode : zlib
Codec ID : S_HDMV/PGS
Codec ID/Info : Picture based subtitle format used on BDs/HD-DVDs
Duration : 54 min 49 s
Bit rate : 10.7 kb/s
Count of elements : 1616
Stream size : 4.19 MiB (0%)
Language : French
Default : No
Forced : No

Text #4
ID : 6
Format : PGS
Muxing mode : zlib
Codec ID : S_HDMV/PGS
Codec ID/Info : Picture based subtitle format used on BDs/HD-DVDs
Duration : 6 min 19 s
Bit rate : 3 611 b/s
Count of elements : 68
Stream size : 167 KiB (0%)
Language : French
Default : No
Forced : No

Text #5
ID : 7
Format : PGS
Muxing mode : zlib
Codec ID : S_HDMV/PGS
Codec ID/Info : Picture based subtitle format used on BDs/HD-DVDs
Duration : 52 min 45 s
Bit rate : 12.3 kb/s
Count of elements : 1642
Stream size : 4.63 MiB (0%)
Language : Spanish
Default : No
Forced : No

Text #6
ID : 8
Format : PGS
Muxing mode : zlib
Codec ID : S_HDMV/PGS
Codec ID/Info : Picture based subtitle format used on BDs/HD-DVDs
Duration : 52 min 44 s
Bit rate : 11.9 kb/s
Count of elements : 1370
Stream size : 4.50 MiB (0%)
Language : Spanish
Default : No
Forced : No

Text #7
ID : 9
Format : PGS
Muxing mode : zlib
Codec ID : S_HDMV/PGS
Codec ID/Info : Picture based subtitle format used on BDs/HD-DVDs
Duration : 4 min 13 s
Bit rate : 4 464 b/s
Count of elements : 46
Stream size : 138 KiB (0%)
Language : Spanish
Default : No
Forced : No

Text #8
ID : 10
Format : PGS
Muxing mode : zlib
Codec ID : S_HDMV/PGS
Codec ID/Info : Picture based subtitle format used on BDs/HD-DVDs
Duration : 52 min 45 s
Bit rate : 11.7 kb/s
Count of elements : 1310
Stream size : 4.41 MiB (0%)
Language : German
Default : No
Forced : No

Text #9
ID : 11
Format : PGS
Muxing mode : zlib
Codec ID : S_HDMV/PGS
Codec ID/Info : Picture based subtitle format used on BDs/HD-DVDs
Duration : 4 min 14 s
Bit rate : 4 665 b/s
Count of elements : 52
Stream size : 145 KiB (0%)
Language : German
Default : No
Forced : No

Text #10
ID : 12
Format : PGS
Muxing mode : zlib
Codec ID : S_HDMV/PGS
Codec ID/Info : Picture based subtitle format used on BDs/HD-DVDs
Duration : 53 min 22 s
Bit rate : 12.4 kb/s
Count of elements : 1506
Stream size : 4.74 MiB (0%)
Language : Italian
Default : No
Forced : No

Text #11
ID : 13
Format : PGS
Muxing mode : zlib
Codec ID : S_HDMV/PGS
Codec ID/Info : Picture based subtitle format used on BDs/HD-DVDs
Duration : 4 min 14 s
Bit rate : 4 450 b/s
Count of elements : 58
Stream size : 138 KiB (0%)
Language : Italian
Default : No
Forced : No

Text #12
ID : 14
Format : PGS
Muxing mode : zlib
Codec ID : S_HDMV/PGS
Codec ID/Info : Picture based subtitle format used on BDs/HD-DVDs
Duration : 52 min 45 s
Bit rate : 12.2 kb/s
Count of elements : 1500
Stream size : 4.59 MiB (0%)
Language : Portuguese
Default : No
Forced : No

Text #13
ID : 15
Format : PGS
Muxing mode : zlib
Codec ID : S_HDMV/PGS
Codec ID/Info : Picture based subtitle format used on BDs/HD-DVDs
Duration : 52 min 44 s
Bit rate : 12.0 kb/s
Count of elements : 1500
Stream size : 4.55 MiB (0%)
Language : Dutch
Default : No
Forced : No

Text #14
ID : 16
Format : PGS
Muxing mode : zlib
Codec ID : S_HDMV/PGS
Codec ID/Info : Picture based subtitle format used on BDs/HD-DVDs
Duration : 52 min 44 s
Bit rate : 11.8 kb/s
Count of elements : 1500
Stream size : 4.47 MiB (0%)
Language : Danish
Default : No
Forced : No

Text #15
ID : 17
Format : PGS
Muxing mode : zlib
Codec ID : S_HDMV/PGS
Codec ID/Info : Picture based subtitle format used on BDs/HD-DVDs
Duration : 52 min 44 s
Bit rate : 10.2 kb/s
Count of elements : 1500
Stream size : 3.85 MiB (0%)
Language : Finnish
Default : No
Forced : No

Text #16
ID : 18
Format : PGS
Muxing mode : zlib
Codec ID : S_HDMV/PGS
Codec ID/Info : Picture based subtitle format used on BDs/HD-DVDs
Duration : 52 min 44 s
Bit rate : 11.3 kb/s
Count of elements : 1500
Stream size : 4.28 MiB (0%)
Language : Norwegian
Default : No
Forced : No

Text #17
ID : 19
Format : PGS
Muxing mode : zlib
Codec ID : S_HDMV/PGS
Codec ID/Info : Picture based subtitle format used on BDs/HD-DVDs
Duration : 52 min 44 s
Bit rate : 11.4 kb/s
Count of elements : 1500
Stream size : 4.31 MiB (0%)
Language : Swedish
Default : No
Forced : No

Menu #1
00:00:00.000 : en:Chapter 01
00:01:56.658 : en:Chapter 02
00:07:57.310 : en:Chapter 03
00:15:34.183 : en:Chapter 04
00:25:32.447 : en:Chapter 05
00:32:02.128 : en:Chapter 06
00:43:19.054 : en:Chapter 07
00:55:35.582 : en:Chapter 08

Menu #2
00:00:00.000 : en:Chapter 01
00:01:56.658 : en:Chapter 02
00:07:57.310 : en:Chapter 03
00:15:34.183 : en:Chapter 04
00:25:32.447 : en:Chapter 05
00:32:02.128 : en:Chapter 06
00:43:19.054 : en:Chapter 07
00:55:35.582 : en:Chapter 08





Game of Thrones S04E03


Game of Thrones S04E03


Game of Thrones S04E03


Game of Thrones S04E03


Game of Thrones S04E03

All episodes