Index
# A B C D E F G H I J K L M N O P Q R S T U V W Y Z
Tags
Language
Tags

Featured TV Shows


Game of Thrones S06E01

Posted By: Tavaz
720p (HD) / HDTV IMDb
Game of Thrones S06E01

Game of Thrones S06E01
HDTV | MKV | 1280x720 | English | H264 @ 1159 kbps | AC-3 @ 384 kbps | 59 min 17 s | 668 MiB
Subtitles: English
Genre: Drama, Mystery


Die Handlung ist in einer fiktiven Welt angesiedelt und spielt auf den Kontinenten Westeros, den Sieben Königreichen sowie im Gebiet der "Mauer" und jenseits davon im Norden und Essos. In dieser Welt ist die Länge der Sommer und Winter unvorhersehbar und variabel; eine Jahreszeit kann Jahre oder sogar Jahrzehnte dauern. Der Handlungsort auf dem Kontinent Westeros in den Sieben Königreichen ähnelt dabei stark dem mittelalterlichen Europa. Die Geschichte spielt am Ende eines langen Sommers und wird in drei Handlungssträngen weitgehend parallel erzählt. In den Sieben Königreichen bauen sich zwischen den mächtigsten Adelshäusern des Reiches Spannungen auf, die schließlich zum offenen Thronkampf führen. Gleichzeitig droht der Wintereinbruch und es zeichnet sich eine Gefahr durch eine fremde Rasse im hohen Norden von Westeros ab.

GoT.S06E06.Blood.of.My.Blood.720p.srt (31.2 KB)
GoT.S06E06.Blood.of.My.Blood.720p.mkv (486.5 MB)
GoT.S06E01.The.Red.Woman.720p.mkv (568.9 MB)
GoT.S06E08.No.One.720p.srt (31.7 KB)
GoT.S06E08.No.One.720p.mkv (539.5 MB)
GoT.S06E03.Oathbreaker.720p.srt (31.0 KB)
GoT.S06E04.Book.of.the.Stranger.720p.srt (39.1 KB)
GoT.S06E09.Battle.of.the.Bastards.720p.mkv (667.8 MB)
GoT.S06E02.Home.720p.mkv (438.8 MB)
GoT.S06E03.Oathbreaker.720p.mkv (416.6 MB)
GoT.S06E10.The.Winds.of.Winter.720p.srt (31.3 KB)
GoT.S06E09.Battle.of.the.Bastards.720p.srt (23.1 KB)
GoT.S06E01.The.Red.Woman.720p.srt (25.3 KB)
GoT.S06E02.Home.720p.srt (26.9 KB)
GoT.S06E05.The.Door.720p.mkv (568.9 MB)
GoT.S06E07.The.Broken.Man.720p.mkv (538.4 MB)
GoT.S06E04.Book.of.the.Stranger.720p.mkv (508.3 MB)
GoT.S06E10.The.Winds.of.Winter.720p.mkv (541.0 MB)
GoT.S06E07.The.Broken.Man.720p.srt (33.5 KB)
GoT.S06E05.The.Door.720p.srt (32.4 KB)



General
Unique ID : 197182853113285130898337216300098888474 (0x945809400420DFEB99E0C67E52E5A31A)
Complete name : ./GoT.S06E09.Battle.of.the.Bastards.720p.mkv
Format : Matroska
Format version : Version 4 / Version 2
File size : 668 MiB
Duration : 59 min 17 s
Overall bit rate : 1 575 kb/s
Movie name : Game Of Thrones Season 6 Disc 4
Encoded date : UTC 2019-06-30 05:42:07 / UTC 2016-12-07T18:10:36Z
Writing application : mkvmerge v9.6.0 ('Slave To Your Mind') 64bit
Writing library : libebml v1.3.4 + libmatroska v1.4.5 / Lavf55.12.0

Video
ID : 1
Format : AVC
Format/Info : Advanced Video Codec
Format profile : High@L4.1
Format settings : CABAC / 9 Ref Frames
Format settings, CABAC : Yes
Format settings, RefFrames : 9 frames
Codec ID : V_MPEG4/ISO/AVC
Duration : 59 min 17 s
Bit rate : 1 159 kb/s
Width : 1 280 pixels
Height : 720 pixels
Display aspect ratio : 16:9
Frame rate mode : Constant
Frame rate : 23.976 (24000/1001) FPS
Color space : YUV
Chroma subsampling : 4:2:0
Bit depth : 8 bits
Scan type : Progressive
Bits/(Pixel*Frame) : 0.052
Stream size : 492 MiB (74%)
Writing library : x264 core 142 r2479 dd79a61
Encoding settings : cabac=1 / ref=9 / deblock=1:0:0 / analyse=0x3:0x133 / me=umh / subme=10 / psy=1 / psy_rd=1.00:0.00 / mixed_ref=1 / me_range=24 / chroma_me=1 / trellis=2 / 8x8dct=1 / cqm=0 / deadzone=21,11 / fast_pskip=1 / chroma_qp_offset=-2 / threads=6 / lookahead_threads=1 / sliced_threads=0 / nr=0 / decimate=1 / interlaced=0 / bluray_compat=0 / constrained_intra=0 / bframes=8 / b_pyramid=2 / b_adapt=2 / b_bias=0 / direct=3 / weightb=1 / open_gop=0 / weightp=2 / keyint=240 / keyint_min=24 / scenecut=40 / intra_refresh=0 / rc_lookahead=60 / rc=crf / mbtree=1 / crf=23.0 / qcomp=0.60 / qpmin=0 / qpmax=69 / qpstep=4 / vbv_maxrate=62500 / vbv_bufsize=78125 / crf_max=0.0 / nal_hrd=none / filler=0 / ip_ratio=1.40 / aq=1:1.00
Default : Yes
Forced : No
Color range : Limited
Color primaries : BT.709
Transfer characteristics : BT.709
Matrix coefficients : BT.709
Statistics Tags Issue : mkvmerge v9.6.0 ('Slave To Your Mind') 64bit 2019-06-30 05:42:07 / mkvmerge v9.6.0 ('Slave To Your Mind') 64bit 2019-06-30 05:42:07 / UTC 2016-12-07T18:10:36Z
FromStats_BitRate : 1188939
FromStats_Duration : 00:59:17.596000000
FromStats_FrameCount : 85297
FromStats_StreamSize : 528720994

Audio
ID : 2
Format : AC-3
Format/Info : Audio Coding 3
Format settings, Endianness : Big
Codec ID : A_AC3
Duration : 59 min 17 s
Bit rate mode : Constant
Bit rate : 384 kb/s
Channel(s) : 6 channels
Channel positions : Front: L C R, Side: L R, LFE
Sampling rate : 48.0 kHz
Frame rate : 31.250 FPS (1536 SPF)
Bit depth : 16 bits
Compression mode : Lossy
Delay relative to video : -5 ms
Stream size : 163 MiB (24%)
Title : English
Language : English
Service kind : Complete Main
Default : Yes
Forced : No
Statistics Tags Issue : mkvmerge v9.6.0 ('Slave To Your Mind') 64bit 2019-06-30 05:42:07 / mkvmerge v9.6.0 ('Slave To Your Mind') 64bit 2019-06-30 05:42:07 / UTC 2016-12-07T18:10:36Z
FromStats_BitRate : 384000
FromStats_Duration : 00:59:17.600000000
FromStats_FrameCount : 111175
FromStats_StreamSize : 170764800

Text #1
ID : 3
Format : UTF-8
Codec ID : S_TEXT/UTF8
Codec ID/Info : UTF-8 Plain Text
Title : English (Forced)
Language : English
Default : Yes
Forced : No
Statistics Tags Issue : mkvmerge v9.6.0 ('Slave To Your Mind') 64bit 2019-06-30 05:42:07 / mkvmerge v9.6.0 ('Slave To Your Mind') 64bit 2019-06-30 05:42:07 / UTC 2016-12-07T18:10:36Z
FromStats_BitRate : 68
FromStats_Duration : 00:00:13.346000000
FromStats_FrameCount : 3
FromStats_StreamSize : 115

Text #2
ID : 4
Format : UTF-8
Codec ID : S_TEXT/UTF8
Codec ID/Info : UTF-8 Plain Text
Title : English
Language : English
Default : No
Forced : No
Statistics Tags Issue : mkvmerge v9.6.0 ('Slave To Your Mind') 64bit 2019-06-30 05:42:07 / mkvmerge v9.6.0 ('Slave To Your Mind') 64bit 2019-06-30 05:42:07 / UTC 2016-12-07T18:10:36Z
FromStats_BitRate : 40
FromStats_Duration : 00:55:44.507000000
FromStats_FrameCount : 578
FromStats_StreamSize : 16869

Menu
00:00:00.000 : :Chapter 1
00:01:55.824 : :Chapter 2
00:11:18.552 : :Chapter 3
00:22:34.645 : :Chapter 4
00:30:10.683 : :Chapter 5
00:38:47.199 : :Chapter 6
00:49:03.524 : :Chapter 7
00:57:57.474 : :Chapter 8





Game of Thrones S06E01


Game of Thrones S06E01


Game of Thrones S06E01


Game of Thrones S06E01


Game of Thrones S06E01

All episodes