Featured TV Shows


Game of Thrones S06E03

Posted By: Tavaz
SD / HDTV IMDb
Game of Thrones S06E03

Game of Thrones S06E03
HDTV | AVI | 640x360 | MP4V-ES @ 673 kbps | MPEG Audio @ 128 kbps | 52 min 8 s | 303 MiB
Genre: Drama

Seven noble families fight for control of the mythical land of Westeros. Friction between the houses leads to full-scale war. All while a very ancient evil awakens in the farthest north. Amidst the war, a neglected military order of misfits, the Night's Watch, is all that stands between the realms of men and icy horrors beyond.

51f778b32db3414b86f3c3882f226670.avi (302.6 MB)



General
Complete name : ./51f778b32db3414b86f3c3882f226670.avi
Format : AVI
Format/Info : Audio Video Interleave
File size : 303 MiB
Duration : 52 min 8 s
Overall bit rate : 811 kb/s
Writing application : VirtualDubMod 1.5.10.2 (build 2542/release)
Writing library : VirtualDubMod build 2542/release

Video
ID : 0
Format : MPEG-4 Visual
Format profile : Simple@L3
Format settings, BVOP : No
Format settings, QPel : No
Format settings, GMC : No warppoints
Format settings, Matrix : Default (H.263)
Codec ID : XVID
Codec ID/Hint : XviD
Duration : 52 min 8 s
Bit rate : 674 kb/s
Width : 640 pixels
Height : 360 pixels
Display aspect ratio : 16:9
Frame rate : 23.976 (24000/1001) FPS
Color space : YUV
Chroma subsampling : 4:2:0
Bit depth : 8 bits
Scan type : Progressive
Compression mode : Lossy
Bits/(Pixel*Frame) : 0.122
Stream size : 251 MiB (83%)
Writing library : XviD 64

Audio
ID : 1
Format : MPEG Audio
Format version : Version 1
Format profile : Layer 3
Format settings : Joint stereo
Mode : Joint stereo
Codec ID : 55
Codec ID/Hint : MP3
Duration : 52 min 8 s
Bit rate mode : Constant
Bit rate : 128 kb/s
Channel(s) : 2 channels
Sampling rate : 48.0 kHz
Compression mode : Lossy
Stream size : 47.7 MiB (16%)
Alignment : Aligned on interleaves
Interleave, duration : 42 ms (1.00 video frame)
Interleave, preload duration : 504 ms





Game of Thrones S06E03


Game of Thrones S06E03


Game of Thrones S06E03


Game of Thrones S06E03


Game of Thrones S06E03

All episodes