Featured TV Shows


Game of Thrones S06E05

Posted By: Tavaz
720p (HD) / HDTV IMDb
Game of Thrones S06E05

Game of Thrones S06E05
HDTV | AVI | 1280x718 | MP4V-ES @ 2834 kbps | AC-3 @ 384 kbps | 56 min 41 s | 1.28 GiB
Genre: Drama

Seven noble families fight for control of the mythical land of Westeros. Friction between the houses leads to full-scale war. All while a very ancient evil awakens in the farthest north. Amidst the war, a neglected military order of misfits, the Night's Watch, is all that stands between the realms of men and icy horrors beyond.

e02c9dee72764477ad86a7c94228f192.mkv (1.3 GB)



General
Complete name : ./e02c9dee72764477ad86a7c94228f192.mkv
Format : AVI
Format/Info : Audio Video Interleave
File size : 1.28 GiB
Duration : 56 min 41 s
Overall bit rate : 3 228 kb/s
Writing library : VirtualDub build 35491/release
FileExtension_Invalid : avi

Video
ID : 0
Format : MPEG-4 Visual
Format profile : Advanced Simple@L4
Format settings, BVOP : No
Format settings, QPel : No
Format settings, GMC : No warppoints
Format settings, Matrix : Default (H.263)
Codec ID : XVID
Codec ID/Hint : XviD
Duration : 56 min 41 s
Bit rate : 2 835 kb/s
Width : 1 280 pixels
Height : 718 pixels
Display aspect ratio : 16:9
Frame rate : 23.976 (24000/1001) FPS
Color space : YUV
Chroma subsampling : 4:2:0
Bit depth : 8 bits
Scan type : Progressive
Compression mode : Lossy
Bits/(Pixel*Frame) : 0.129
Stream size : 1.12 GiB (88%)
Writing library : XviD 64

Audio
ID : 1
Format : AC-3
Format/Info : Audio Coding 3
Format settings, Endianness : Big
Codec ID : 2000
Duration : 56 min 41 s
Bit rate mode : Constant
Bit rate : 384 kb/s
Channel(s) : 6 channels
Channel positions : Front: L C R, Side: L R, LFE
Sampling rate : 48.0 kHz
Frame rate : 31.250 FPS (1536 SPF)
Bit depth : 16 bits
Compression mode : Lossy
Stream size : 156 MiB (12%)
Alignment : Aligned on interleaves
Interleave, duration : 42 ms (1.00 video frame)
Interleave, preload duration : 512 ms
Service kind : Complete Main





Game of Thrones S06E05


Game of Thrones S06E05


Game of Thrones S06E05


Game of Thrones S06E05


Game of Thrones S06E05

All episodes