Featured TV Shows


Game of Thrones S06E08

Posted By: Tavaz
SD / HDTV IMDb
Game of Thrones S06E08

Game of Thrones S06E08
HDTV | AVI | 720x402 | MP4V-ES @ 1227 kbps | AC-3 @ 192 kbps | 58 min 13 s | 595 MiB
Genre: Drama

Seven noble families fight for control of the mythical land of Westeros. Friction between the houses leads to full-scale war. All while a very ancient evil awakens in the farthest north. Amidst the war, a neglected military order of misfits, the Night's Watch, is all that stands between the realms of men and icy horrors beyond.

da826ed581034fccb99b49903a30a854.avi (595.2 MB)



General
Complete name : ./da826ed581034fccb99b49903a30a854.avi
Format : AVI
Format/Info : Audio Video Interleave
File size : 595 MiB
Duration : 58 min 13 s
Overall bit rate : 1 429 kb/s
Writing library : VirtualDub build 35491/release

Video
ID : 0
Format : MPEG-4 Visual
Format profile : Advanced Simple@L5
Format settings, BVOP : No
Format settings, QPel : No
Format settings, GMC : No warppoints
Format settings, Matrix : Default (H.263)
Codec ID : XVID
Codec ID/Hint : XviD
Duration : 58 min 13 s
Bit rate : 1 228 kb/s
Width : 720 pixels
Height : 402 pixels
Display aspect ratio : 16:9
Frame rate : 23.976 (24000/1001) FPS
Color space : YUV
Chroma subsampling : 4:2:0
Bit depth : 8 bits
Scan type : Progressive
Compression mode : Lossy
Bits/(Pixel*Frame) : 0.177
Stream size : 511 MiB (86%)
Writing library : XviD 64

Audio
ID : 1
Format : AC-3
Format/Info : Audio Coding 3
Format settings, Endianness : Big
Codec ID : 2000
Duration : 58 min 13 s
Bit rate mode : Constant
Bit rate : 192 kb/s
Channel(s) : 6 channels
Channel positions : Front: L C R, Side: L R, LFE
Sampling rate : 48.0 kHz
Frame rate : 31.250 FPS (1536 SPF)
Bit depth : 16 bits
Compression mode : Lossy
Stream size : 80.0 MiB (13%)
Alignment : Aligned on interleaves
Interleave, duration : 42 ms (1.00 video frame)
Interleave, preload duration : 512 ms
Service kind : Complete Main





Game of Thrones S06E08


Game of Thrones S06E08


Game of Thrones S06E08


Game of Thrones S06E08


Game of Thrones S06E08

All episodes