Featured TV Shows


Game of Thrones S07E03

Posted By: Tavaz
720p (HD) / BDRip IMDb
Game of Thrones S07E03

Game of Thrones S07E03
BDRip | MKV | 1280x720 | English | H264 @ 2527 kbps | AC-3 @ 384 kbps | 1 h 2 min | 1.27 GiB
Subtitles: Danish, Finnish, Czech, Dutch, Norwegian, English
Genre: Drama

Seven noble families fight for control of the mythical land of Westeros. Friction between the houses leads to full-scale war. All while a very ancient evil awakens in the farthest north. Amidst the war, a neglected military order of misfits, the Night's Watch, is all that stands between the realms of men and icy horrors beyond.

d0a971f8cef24fdeabb1be47c9f4378d.mkv (1.3 GB)



General
Unique ID : 221733480339862536889913052334392264937 (0xA6D050A04CA2365B84E208E2740EC8E9)
Complete name : ./d0a971f8cef24fdeabb1be47c9f4378d.mkv
Format : Matroska
Format version : Version 2
File size : 1.27 GiB
Duration : 1 h 2 min
Overall bit rate : 2 906 kb/s
Encoded date : UTC 2018-03-07 14:18:24
Writing application : mkvmerge v4.9.1 ('Ich will') built on Jul 11 2011 23:53:15
Writing library : libebml v1.2.1 + libmatroska v1.1.1

Video
ID : 1
Format : AVC
Format/Info : Advanced Video Codec
Format profile : High@L4.1
Format settings : CABAC / 8 Ref Frames
Format settings, CABAC : Yes
Format settings, RefFrames : 8 frames
Muxing mode : Header stripping
Codec ID : V_MPEG4/ISO/AVC
Duration : 1 h 2 min
Bit rate : 2 527 kb/s
Width : 1 280 pixels
Height : 720 pixels
Display aspect ratio : 16:9
Frame rate mode : Constant
Frame rate : 23.976 FPS
Color space : YUV
Chroma subsampling : 4:2:0
Bit depth : 8 bits
Scan type : Progressive
Bits/(Pixel*Frame) : 0.114
Stream size : 1.07 GiB (85%)
Writing library : x264 core 148 r2638 7599210
Encoding settings : cabac=1 / ref=8 / deblock=1:0:0 / analyse=0x3:0x113 / me=umh / subme=9 / psy=1 / psy_rd=1.00:0.00 / mixed_ref=1 / me_range=16 / chroma_me=1 / trellis=1 / 8x8dct=1 / cqm=0 / deadzone=21,11 / fast_pskip=1 / chroma_qp_offset=-2 / threads=8 / lookahead_threads=1 / sliced_threads=0 / nr=0 / decimate=1 / interlaced=0 / bluray_compat=0 / constrained_intra=0 / bframes=5 / b_pyramid=2 / b_adapt=1 / b_bias=0 / direct=1 / weightb=1 / open_gop=0 / weightp=2 / keyint=250 / keyint_min=23 / scenecut=40 / intra_refresh=0 / rc_lookahead=40 / rc=2pass / mbtree=1 / bitrate=2527 / ratetol=1.0 / qcomp=0.60 / qpmin=0 / qpmax=69 / qpstep=4 / cplxblur=20.0 / qblur=0.5 / vbv_maxrate=20000 / vbv_bufsize=15000 / nal_hrd=none / filler=0 / ip_ratio=1.40 / aq=1:1.00
Language : English
Default : Yes
Forced : No
Color range : Limited
Color primaries : BT.709
Transfer characteristics : BT.709
Matrix coefficients : BT.709

Audio
ID : 2
Format : AC-3
Format/Info : Audio Coding 3
Format settings, Endianness : Big
Muxing mode : Header stripping
Codec ID : A_AC3
Duration : 1 h 2 min
Bit rate mode : Constant
Bit rate : 384 kb/s
Channel(s) : 6 channels
Channel positions : Front: L C R, Side: L R, LFE
Sampling rate : 48.0 kHz
Frame rate : 31.250 FPS (1536 SPF)
Bit depth : 16 bits
Compression mode : Lossy
Stream size : 171 MiB (13%)
Language : English
Service kind : Complete Main
Default : Yes
Forced : No

Text #1
ID : 3
Format : UTF-8
Codec ID : S_TEXT/UTF8
Codec ID/Info : UTF-8 Plain Text
Language : Czech
Default : No
Forced : No
Statistics Tags Issue : mkvmerge v9.2.0 ('Photograph') 64bit 2017-12-06 13:33:14 / mkvmerge v4.9.1 ('Ich will') built on Jul 11 2011 23:53:15 2018-03-07 14:18:24
FromStats_BitRate : 71
FromStats_Duration : 00:58:55.995000000
FromStats_FrameCount : 750
FromStats_StreamSize : 31530

Text #2
ID : 4
Format : UTF-8
Codec ID : S_TEXT/UTF8
Codec ID/Info : UTF-8 Plain Text
Language : Danish
Default : No
Forced : No
Statistics Tags Issue : mkvmerge v9.2.0 ('Photograph') 64bit 2017-12-06 13:33:14 / mkvmerge v4.9.1 ('Ich will') built on Jul 11 2011 23:53:15 2018-03-07 14:18:24
FromStats_BitRate : 72
FromStats_Duration : 00:58:08.818000000
FromStats_FrameCount : 938
FromStats_StreamSize : 31718

Text #3
ID : 5
Format : UTF-8
Codec ID : S_TEXT/UTF8
Codec ID/Info : UTF-8 Plain Text
Language : Dutch
Default : No
Forced : No
Statistics Tags Issue : mkvmerge v9.2.0 ('Photograph') 64bit 2017-12-06 13:33:14 / mkvmerge v4.9.1 ('Ich will') built on Jul 11 2011 23:53:15 2018-03-07 14:18:24
FromStats_BitRate : 70
FromStats_Duration : 00:58:08.818000000
FromStats_FrameCount : 938
FromStats_StreamSize : 30807

Text #4
ID : 6
Format : UTF-8
Codec ID : S_TEXT/UTF8
Codec ID/Info : UTF-8 Plain Text
Language : English
Default : No
Forced : No
Statistics Tags Issue : mkvmerge v9.2.0 ('Photograph') 64bit 2017-12-06 13:33:14 / mkvmerge v4.9.1 ('Ich will') built on Jul 11 2011 23:53:15 2018-03-07 14:18:24
FromStats_BitRate : 70
FromStats_Duration : 00:58:08.823000000
FromStats_FrameCount : 937
FromStats_StreamSize : 30848

Text #5
ID : 7
Format : UTF-8
Codec ID : S_TEXT/UTF8
Codec ID/Info : UTF-8 Plain Text
Title : Forced
Language : English
Default : Yes
Forced : Yes
Statistics Tags Issue : mkvmerge v9.2.0 ('Photograph') 64bit 2017-12-06 13:33:14 / mkvmerge v4.9.1 ('Ich will') built on Jul 11 2011 23:53:15 2018-03-07 14:18:24
FromStats_BitRate : 67
FromStats_Duration : 00:00:08.425000000
FromStats_FrameCount : 3
FromStats_StreamSize : 71

Text #6
ID : 8
Format : UTF-8
Codec ID : S_TEXT/UTF8
Codec ID/Info : UTF-8 Plain Text
Language : Finnish
Default : No
Forced : No
Statistics Tags Issue : mkvmerge v9.2.0 ('Photograph') 64bit 2017-12-06 13:33:14 / mkvmerge v4.9.1 ('Ich will') built on Jul 11 2011 23:53:15 2018-03-07 14:18:24
FromStats_BitRate : 68
FromStats_Duration : 00:58:08.818000000
FromStats_FrameCount : 938
FromStats_StreamSize : 29731

Text #7
ID : 9
Format : UTF-8
Codec ID : S_TEXT/UTF8
Codec ID/Info : UTF-8 Plain Text
Language : Norwegian
Default : No
Forced : No
Statistics Tags Issue : mkvmerge v9.2.0 ('Photograph') 64bit 2017-12-06 13:33:14 / mkvmerge v4.9.1 ('Ich will') built on Jul 11 2011 23:53:15 2018-03-07 14:18:24
FromStats_BitRate : 68
FromStats_Duration : 00:58:08.818000000
FromStats_FrameCount : 938
FromStats_StreamSize : 29864

Menu
00:00:00.000 : en:00:00:00.000
00:01:55.615 : en:00:01:55.615
00:07:52.639 : en:00:07:52.639
00:18:23.728 : en:00:18:23.728
00:32:22.649 : en:00:32:22.649
00:40:01.983 : en:00:40:01.983
00:50:45.501 : en:00:50:45.501
01:01:04.119 : en:01:01:04.119





Game of Thrones S07E03


Game of Thrones S07E03


Game of Thrones S07E03


Game of Thrones S07E03


Game of Thrones S07E03

All episodes